  0
SECTION
  2
HEADER
  9
$ACADVER
  1
AC1015
  9
$ACADMAINTVER
 70
     6
  9
$DWGCODEPAGE
  3
ANSI_1252
  9
$INSBASE
 10
0.0
 20
0.0
 30
0.0
  9
$EXTMIN
 10
0.0
 20
0.0
 30
0.0
  9
$EXTMAX
 10
297.0000000000002
 20
210.0000000000002
 30
0.0
  9
$LIMMIN
 10
0.0
 20
0.0
  9
$LIMMAX
 10
12.0
 20
9.0
  9
$ORTHOMODE
 70
     0
  9
$REGENMODE
 70
     1
  9
$FILLMODE
 70
     1
  9
$QTEXTMODE
 70
     0
  9
$MIRRTEXT
 70
     1
  9
$LTSCALE
 40
1.0
  9
$ATTMODE
 70
     1
  9
$TEXTSIZE
 40
0.2
  9
$TRACEWID
 40
0.05
  9
$TEXTSTYLE
  7
Standard
  9
$CLAYER
  8
0
  9
$CELTYPE
  6
ByLayer
  9
$CECOLOR
 62
   256
  9
$CELTSCALE
 40
1.0
  9
$DISPSILH
 70
     0
  9
$DIMSCALE
 40
1.0
  9
$DIMASZ
 40
0.18
  9
$DIMEXO
 40
0.0625
  9
$DIMDLI
 40
0.38
  9
$DIMRND
 40
0.0
  9
$DIMDLE
 40
0.0
  9
$DIMEXE
 40
0.18
  9
$DIMTP
 40
0.0
  9
$DIMTM
 40
0.0
  9
$DIMTXT
 40
0.18
  9
$DIMCEN
 40
0.09
  9
$DIMTSZ
 40
0.0
  9
$DIMTOL
 70
     0
  9
$DIMLIM
 70
     0
  9
$DIMTIH
 70
     1
  9
$DIMTOH
 70
     1
  9
$DIMSE1
 70
     0
  9
$DIMSE2
 70
     0
  9
$DIMTAD
 70
     0
  9
$DIMZIN
 70
     0
  9
$DIMBLK
  1

  9
$DIMASO
 70
     1
  9
$DIMSHO
 70
     1
  9
$DIMPOST
  1

  9
$DIMAPOST
  1

  9
$DIMALT
 70
     0
  9
$DIMALTD
 70
     2
  9
$DIMALTF
 40
25.4
  9
$DIMLFAC
 40
1.0
  9
$DIMTOFL
 70
     0
  9
$DIMTVP
 40
0.0
  9
$DIMTIX
 70
     0
  9
$DIMSOXD
 70
     0
  9
$DIMSAH
 70
     0
  9
$DIMBLK1
  1

  9
$DIMBLK2
  1

  9
$DIMSTYLE
  2
Standard
  9
$DIMCLRD
 70
     0
  9
$DIMCLRE
 70
     0
  9
$DIMCLRT
 70
     0
  9
$DIMTFAC
 40
1.0
  9
$DIMGAP
 40
0.09
  9
$DIMJUST
 70
     0
  9
$DIMSD1
 70
     0
  9
$DIMSD2
 70
     0
  9
$DIMTOLJ
 70
     1
  9
$DIMTZIN
 70
     0
  9
$DIMALTZ
 70
     0
  9
$DIMALTTZ
 70
     0
  9
$DIMUPT
 70
     0
  9
$DIMDEC
 70
     4
  9
$DIMTDEC
 70
     4
  9
$DIMALTU
 70
     2
  9
$DIMALTTD
 70
     2
  9
$DIMTXSTY
  7
Standard
  9
$DIMAUNIT
 70
     0
  9
$DIMADEC
 70
     0
  9
$DIMALTRND
 40
0.0
  9
$DIMAZIN
 70
     0
  9
$DIMDSEP
 70
    46
  9
$DIMATFIT
 70
     3
  9
$DIMFRAC
 70
     0
  9
$DIMLDRBLK
  1

  9
$DIMLUNIT
 70
     2
  9
$DIMLWD
 70
    -2
  9
$DIMLWE
 70
    -2
  9
$DIMTMOVE
 70
     0
  9
$LUNITS
 70
     2
  9
$LUPREC
 70
     4
  9
$SKETCHINC
 40
0.1
  9
$FILLETRAD
 40
0.5
  9
$AUNITS
 70
     0
  9
$AUPREC
 70
     0
  9
$MENU
  1
.
  9
$ELEVATION
 40
0.0
  9
$PELEVATION
 40
0.0
  9
$THICKNESS
 40
0.0
  9
$LIMCHECK
 70
     0
  9
$CHAMFERA
 40
0.5
  9
$CHAMFERB
 40
0.5
  9
$CHAMFERC
 40
1.0
  9
$CHAMFERD
 40
0.0
  9
$SKPOLY
 70
     0
  9
$TDCREATE
 40
2456997.606614167
  9
$TDUCREATE
 40
2456997.5649475
  9
$TDUPDATE
 40
2456997.60661434
  9
$TDUUPDATE
 40
2456997.564947674
  9
$TDINDWG
 40
0.0000000116
  9
$TDUSRTIMER
 40
0.0000000116
  9
$USRTIMER
 70
     1
  9
$ANGBASE
 50
0.0
  9
$ANGDIR
 70
     0
  9
$PDMODE
 70
     0
  9
$PDSIZE
 40
0.0
  9
$PLINEWID
 40
0.0
  9
$SPLFRAME
 70
     0
  9
$SPLINETYPE
 70
     6
  9
$SPLINESEGS
 70
     8
  9
$HANDSEED
  5
29A
  9
$SURFTAB1
 70
     6
  9
$SURFTAB2
 70
     6
  9
$SURFTYPE
 70
     6
  9
$SURFU
 70
     6
  9
$SURFV
 70
     6
  9
$UCSBASE
  2

  9
$UCSNAME
  2

  9
$UCSORG
 10
0.0
 20
0.0
 30
0.0
  9
$UCSXDIR
 10
1.0
 20
0.0
 30
0.0
  9
$UCSYDIR
 10
0.0
 20
1.0
 30
0.0
  9
$UCSORTHOREF
  2

  9
$UCSORTHOVIEW
 70
     0
  9
$UCSORGTOP
 10
0.0
 20
0.0
 30
0.0
  9
$UCSORGBOTTOM
 10
0.0
 20
0.0
 30
0.0
  9
$UCSORGLEFT
 10
0.0
 20
0.0
 30
0.0
  9
$UCSORGRIGHT
 10
0.0
 20
0.0
 30
0.0
  9
$UCSORGFRONT
 10
0.0
 20
0.0
 30
0.0
  9
$UCSORGBACK
 10
0.0
 20
0.0
 30
0.0
  9
$PUCSBASE
  2

  9
$PUCSNAME
  2

  9
$PUCSORG
 10
0.0
 20
0.0
 30
0.0
  9
$PUCSXDIR
 10
1.0
 20
0.0
 30
0.0
  9
$PUCSYDIR
 10
0.0
 20
1.0
 30
0.0
  9
$PUCSORTHOREF
  2

  9
$PUCSORTHOVIEW
 70
     0
  9
$PUCSORGTOP
 10
0.0
 20
0.0
 30
0.0
  9
$PUCSORGBOTTOM
 10
0.0
 20
0.0
 30
0.0
  9
$PUCSORGLEFT
 10
0.0
 20
0.0
 30
0.0
  9
$PUCSORGRIGHT
 10
0.0
 20
0.0
 30
0.0
  9
$PUCSORGFRONT
 10
0.0
 20
0.0
 30
0.0
  9
$PUCSORGBACK
 10
0.0
 20
0.0
 30
0.0
  9
$USERI1
 70
     0
  9
$USERI2
 70
     0
  9
$USERI3
 70
     0
  9
$USERI4
 70
     0
  9
$USERI5
 70
     0
  9
$USERR1
 40
18.1
  9
$USERR2
 40
0.0
  9
$USERR3
 40
0.0
  9
$USERR4
 40
0.0
  9
$USERR5
 40
0.0
  9
$WORLDVIEW
 70
     1
  9
$SHADEDGE
 70
     3
  9
$SHADEDIF
 70
    70
  9
$TILEMODE
 70
     1
  9
$MAXACTVP
 70
    64
  9
$PINSBASE
 10
0.0
 20
0.0
 30
0.0
  9
$PLIMCHECK
 70
     0
  9
$PEXTMIN
 10
1.00000000000000E+20
 20
1.00000000000000E+20
 30
1.00000000000000E+20
  9
$PEXTMAX
 10
-1.00000000000000E+20
 20
-1.00000000000000E+20
 30
-1.00000000000000E+20
  9
$PLIMMIN
 10
0.0
 20
0.0
  9
$PLIMMAX
 10
12.0
 20
9.0
  9
$UNITMODE
 70
     0
  9
$VISRETAIN
 70
     1
  9
$PLINEGEN
 70
     0
  9
$PSLTSCALE
 70
     1
  9
$TREEDEPTH
 70
  3020
  9
$CMLSTYLE
  2
Standard
  9
$CMLJUST
 70
     0
  9
$CMLSCALE
 40
1.0
  9
$PROXYGRAPHICS
 70
     1
  9
$MEASUREMENT
 70
     1
  9
$CELWEIGHT
370
    -1
  9
$ENDCAPS
280
     0
  9
$JOINSTYLE
280
     0
  9
$LWDISPLAY
290
     0
  9
$INSUNITS
 70
     4
  9
$HYPERLINKBASE
  1

  9
$STYLESHEET
  1

  9
$XEDIT
290
     1
  9
$CEPSNTYPE
380
     0
  9
$PSTYLEMODE
290
     1
  9
$FINGERPRINTGUID
  2
{8F7C3025-B319-43C1-8FB1-76EADEBA4118}
  9
$VERSIONGUID
  2
{FAEB1C32-E019-11D5-929B-00C0DF256EC4}
  9
$EXTNAMES
290
     1
  9
$PSVPSCALE
 40
0.0
  9
$OLESTARTUP
290
     0
  0
ENDSEC
  0
SECTION
  2
CLASSES
  0
CLASS
  1
ACDBDICTIONARYWDFLT
  2
AcDbDictionaryWithDefault
  3
ObjectDBX Classes
 90
        0
280
     0
281
     0
  0
CLASS
  1
VISUALSTYLE
  2
AcDbVisualStyle
  3
ObjectDBX Classes
 90
     4095
280
     0
281
     0
  0
CLASS
  1
MATERIAL
  2
AcDbMaterial
  3
ObjectDBX Classes
 90
     1153
280
     0
281
     0
  0
CLASS
  1
DICTIONARYVAR
  2
AcDbDictionaryVar
  3
ObjectDBX Classes
 90
        0
280
     0
281
     0
  0
CLASS
  1
ACDBPLACEHOLDER
  2
AcDbPlaceHolder
  3
ObjectDBX Classes
 90
        0
280
     0
281
     0
  0
CLASS
  1
LAYOUT
  2
AcDbLayout
  3
ObjectDBX Classes
 90
        0
280
     0
281
     0
  0
ENDSEC
  0
SECTION
  2
TABLES
  0
TABLE
  2
VPORT
  5
8
330
0
100
AcDbSymbolTable
 70
     1
  0
VPORT
  5
29
330
8
100
AcDbSymbolTableRecord
100
AcDbViewportTableRecord
  2
*Active
 70
     0
 10
0.0
 20
0.0
 11
1.0
 21
1.0
 12
148.5000000000001
 22
105.0000000000001
 13
0.0
 23
0.0
 14
0.5
 24
0.5
 15
0.5
 25
0.5
 16
0.0
 26
0.0
 36
1.0
 17
0.0
 27
0.0
 37
0.0
 40
231.0000000000002
 41
1.60267857142857
 42
50.0
 43
0.0
 44
0.0
 50
0.0
 51
0.0
 71
     0
 72
   100
 73
     1
 74
     3
 75
     0
 76
     0
 77
     0
 78
     0
281
     0
 65
     1
110
0.0
120
0.0
130
0.0
111
1.0
121
0.0
131
0.0
112
0.0
122
1.0
132
0.0
 79
     0
146
0.0
  0
ENDTAB
  0
TABLE
  2
LTYPE
  5
5
330
0
100
AcDbSymbolTable
 70
     8
  0
LTYPE
  5
14
330
5
100
AcDbSymbolTableRecord
100
AcDbLinetypeTableRecord
  2
ByBlock
 70
     0
  3

 72
    65
 73
     0
 40
0.0
  0
LTYPE
  5
15
330
5
100
AcDbSymbolTableRecord
100
AcDbLinetypeTableRecord
  2
ByLayer
 70
     0
  3

 72
    65
 73
     0
 40
0.0
  0
LTYPE
  5
16
330
5
100
AcDbSymbolTableRecord
100
AcDbLinetypeTableRecord
  2
Continuous
 70
     0
  3
Solid line
 72
    65
 73
     0
 40
0.0
  0
LTYPE
  5
3F
330
5
100
AcDbSymbolTableRecord
100
AcDbLinetypeTableRecord
  2
DASHED
 70
     0
  3
Dashed
 72
    65
 73
     2
 40
15.0
 49
7.0
 74
     0
 49
-8.0
 74
     0
  0
LTYPE
  5
40
330
5
100
AcDbSymbolTableRecord
100
AcDbLinetypeTableRecord
  2
DOTTED
 70
     0
  3
Dotted
 72
    65
 73
     2
 40
1.0
 49
0.0
 74
     0
 49
-1.0
 74
     0
  0
LTYPE
  5
41
330
5
100
AcDbSymbolTableRecord
100
AcDbLinetypeTableRecord
  2
DOT_CENTER
 70
     0
  3
Dot_Center
 72
    65
 73
     4
 40
14.0
 49
12.0
 74
     0
 49
-1.0
 74
     0
 49
0.0
 74
     0
 49
-1.0
 74
     0
  0
LTYPE
  5
42
330
5
100
AcDbSymbolTableRecord
100
AcDbLinetypeTableRecord
  2
LONG_DASHED
 70
     0
  3
Long_Dashed
 72
    65
 73
     2
 40
15.0
 49
10.0
 74
     0
 49
-5.0
 74
     0
  0
LTYPE
  5
43
330
5
100
AcDbSymbolTableRecord
100
AcDbLinetypeTableRecord
  2
DASH_CENTER
 70
     0
  3
Dash_Center
 72
    65
 73
     4
 40
14.0
 49
11.0
 74
     0
 49
-1.0
 74
     0
 49
1.0
 74
     0
 49
-1.0
 74
     0
  0
LTYPE
  5
44
330
5
100
AcDbSymbolTableRecord
100
AcDbLinetypeTableRecord
  2
PHANTOM
 70
     0
  3
Phantom
 72
    65
 73
     6
 40
13.0
 49
10.0
 74
     0
 49
-1.0
 74
     0
 49
0.0
 74
     0
 49
-1.0
 74
     0
 49
0.0
 74
     0
 49
-1.0
 74
     0
  0
LTYPE
  5
45
330
5
100
AcDbSymbolTableRecord
100
AcDbLinetypeTableRecord
  2
CENTER_DASH_DASH
 70
     0
  3
Center_Dash_Dash
 72
    65
 73
     6
 40
14.0
 49
9.0
 74
     0
 49
-1.0
 74
     0
 49
1.0
 74
     0
 49
-1.0
 74
     0
 49
1.0
 74
     0
 49
-1.0
 74
     0
  0
ENDTAB
  0
TABLE
  2
LAYER
  5
2
330
0
100
AcDbSymbolTable
 70
     3
  0
LAYER
  5
10
330
2
100
AcDbSymbolTableRecord
100
AcDbLayerTableRecord
  2
0
 70
     0
 62
     7
  6
Continuous
370
    -3
390
F
  0
LAYER
  5
46
330
2
100
AcDbSymbolTableRecord
100
AcDbLayerTableRecord
  2
1
 70
     0
 62
     7
  6
Continuous
370
    -3
390
F
  0
LAYER
  5
47
330
2
100
AcDbSymbolTableRecord
100
AcDbLayerTableRecord
  2
Sichtbare_Kanten_TC_020513_DIN_
 70
     0
 62
     7
  6
Continuous
370
    -3
390
F
  0
ENDTAB
  0
TABLE
  2
STYLE
  5
3
330
0
100
AcDbSymbolTable
 70
     5
  0
STYLE
  5
11
330
3
100
AcDbSymbolTableRecord
100
AcDbTextStyleTableRecord
  2
Standard
 70
     0
 40
0.0
 41
1.0
 50
0.0
 71
     0
 42
0.2
  3
txt
  4

  0
STYLE
  5
9C
330
3
100
AcDbSymbolTableRecord
100
AcDbTextStyleTableRecord
  2
CONVERTER_11
 70
     0
 40
0.0
 41
1.2
 50
0.0
 71
     0
 42
0.2
  3
ARIAL.TTF
  4

  0
STYLE
  5
A1
330
3
100
AcDbSymbolTableRecord
100
AcDbTextStyleTableRecord
  2
CONVERTER_12
 70
     0
 40
0.0
 41
1.38
 50
0.0
 71
     0
 42
0.2
  3
ARIAL.TTF
  4

  0
STYLE
  5
A4
330
3
100
AcDbSymbolTableRecord
100
AcDbTextStyleTableRecord
  2
CONVERTER_13
 70
     0
 40
0.0
 41
1.104
 50
0.0
 71
     0
 42
0.2
  3
ARIAL.TTF
  4

  0
STYLE
  5
240
330
3
100
AcDbSymbolTableRecord
100
AcDbTextStyleTableRecord
  2
CONVERTER_14
 70
     0
 40
0.0
 41
0.95
 50
0.0
 71
     0
 42
0.2
  3
simplex.shx
  4

  0
ENDTAB
  0
TABLE
  2
VIEW
  5
6
330
0
100
AcDbSymbolTable
 70
     0
  0
ENDTAB
  0
TABLE
  2
UCS
  5
7
330
0
100
AcDbSymbolTable
 70
     0
  0
ENDTAB
  0
TABLE
  2
APPID
  5
9
330
0
100
AcDbSymbolTable
 70
     1
  0
APPID
  5
12
330
9
100
AcDbSymbolTableRecord
100
AcDbRegAppTableRecord
  2
ACAD
 70
     0
  0
ENDTAB
  0
TABLE
  2
DIMSTYLE
  5
A
330
0
100
AcDbSymbolTable
 70
     5
100
AcDbDimStyleTable
  0
DIMSTYLE
105
27
330
A
100
AcDbSymbolTableRecord
100
AcDbDimStyleTableRecord
  2
Standard
 70
     0
178
     0
340
11
  0
DIMSTYLE
105
24C
102
{ACAD_REACTORS
330
24D
102
}
330
A
100
AcDbSymbolTableRecord
100
AcDbDimStyleTableRecord
  2
ME10_DIM_10
 70
     0
 41
3.0
 42
0.5
 44
1.0
 73
     0
 74
     0
 77
     1
 78
     8
140
3.0
147
2.0
172
     1
173
     1
174
     1
175
     1
176
     2
177
     2
271
     2
178
     4
271
     2
340
240
  0
DIMSTYLE
105
257
102
{ACAD_REACTORS
330
258
102
}
330
A
100
AcDbSymbolTableRecord
100
AcDbDimStyleTableRecord
  2
ME10_DIM_11
 70
     0
 41
3.0
 42
0.5
 44
1.0
 73
     0
 74
     0
 77
     1
 78
     8
140
3.0
147
2.0
172
     1
173
     1
174
     1
175
     1
176
     2
177
     2
271
     2
178
     4
271
     2
340
240
  0
DIMSTYLE
105
262
102
{ACAD_REACTORS
330
263
102
}
330
A
100
AcDbSymbolTableRecord
100
AcDbDimStyleTableRecord
  2
ME10_DIM_12
 70
     0
 41
3.0
 42
0.5
 44
1.0
 73
     0
 74
     0
 77
     1
 78
     8
140
3.0
147
2.0
172
     1
173
     1
174
     1
175
     1
176
     2
177
     2
271
     2
178
     4
271
     2
340
240
  0
DIMSTYLE
105
26D
102
{ACAD_REACTORS
330
26E
102
}
330
A
100
AcDbSymbolTableRecord
100
AcDbDimStyleTableRecord
  2
ME10_DIM_13
 70
     0
 41
3.0
 42
0.5
 44
1.0
 73
     0
 74
     0
 77
     1
 78
     8
140
3.0
147
2.0
172
     1
173
     1
174
     1
175
     1
176
     2
177
     2
271
     2
178
     4
271
     2
340
240
  0
ENDTAB
  0
TABLE
  2
BLOCK_RECORD
  5
1
330
0
100
AcDbSymbolTable
 70
     7
  0
BLOCK_RECORD
  5
1F
330
1
100
AcDbSymbolTableRecord
100
AcDbBlockTableRecord
  2
*Model_Space
340
22
  0
BLOCK_RECORD
  5
1B
330
1
100
AcDbSymbolTableRecord
100
AcDbBlockTableRecord
  2
*Paper_Space
340
1E
  0
BLOCK_RECORD
  5
23
330
1
100
AcDbSymbolTableRecord
100
AcDbBlockTableRecord
  2
*Paper_Space0
340
26
  0
BLOCK_RECORD
  5
48
330
1
100
AcDbSymbolTableRecord
100
AcDbBlockTableRecord
  2
_formato_A4
340
0
102
{BLKREFS
331
4C
102
}
  0
BLOCK_RECORD
  5
4B
330
1
100
AcDbSymbolTableRecord
100
AcDbBlockTableRecord
  2
A4_oriz
340
0
102
{BLKREFS
331
4F
102
}
  0
BLOCK_RECORD
  5
243
330
1
100
AcDbSymbolTableRecord
100
AcDbBlockTableRecord
  2
*D3
340
0
  0
BLOCK_RECORD
  5
24E
330
1
100
AcDbSymbolTableRecord
100
AcDbBlockTableRecord
  2
*D4
340
0
  0
BLOCK_RECORD
  5
259
330
1
100
AcDbSymbolTableRecord
100
AcDbBlockTableRecord
  2
*D5
340
0
  0
BLOCK_RECORD
  5
264
330
1
100
AcDbSymbolTableRecord
100
AcDbBlockTableRecord
  2
*D6
340
0
  0
ENDTAB
  0
ENDSEC
  0
SECTION
  2
BLOCKS
  0
BLOCK
  5
20
330
1F
100
AcDbEntity
  8
0
100
AcDbBlockBegin
  2
*Model_Space
 70
     0
 10
0.0
 20
0.0
 30
0.0
  3
*Model_Space
  1

  0
ENDBLK
  5
21
330
1F
100
AcDbEntity
  8
0
100
AcDbBlockEnd
  0
BLOCK
  5
1C
330
1B
100
AcDbEntity
 67
     1
  8
0
100
AcDbBlockBegin
  2
*Paper_Space
 70
     0
 10
0.0
 20
0.0
 30
0.0
  3
*Paper_Space
  1

  0
ENDBLK
  5
1D
330
1B
100
AcDbEntity
 67
     1
  8
0
100
AcDbBlockEnd
  0
BLOCK
  5
24
330
23
100
AcDbEntity
  8
0
100
AcDbBlockBegin
  2
*Paper_Space0
 70
     0
 10
0.0
 20
0.0
 30
0.0
  3
*Paper_Space0
  1

  0
ENDBLK
  5
25
330
23
100
AcDbEntity
  8
0
100
AcDbBlockEnd
  0
BLOCK
  5
49
330
48
100
AcDbEntity
  8
0
100
AcDbBlockBegin
  2
_formato_A4
 70
     0
 10
-851.9009473860199
 20
25.56141494573951
 30
0.0
  3
_formato_A4
  1

  0
LINE
  5
50
330
48
100
AcDbEntity
  8
1
  6
Continuous
 62
     7
100
AcDbLine
 10
-1040.90094738602
 20
35.56141494573937
 30
0.0
 11
-1010.90094738602
 21
35.56141494573937
 31
0.0
  0
LINE
  5
51
330
48
100
AcDbEntity
  8
1
  6
Continuous
 62
     7
100
AcDbLine
 10
-1040.90094738602
 20
40.5614149457394
 30
0.0
 11
-1010.90094738602
 21
40.5614149457394
 31
0.0
  0
LINE
  5
52
330
48
100
AcDbEntity
  8
1
  6
Continuous
 62
     7
100
AcDbLine
 10
-900.9009473860199
 20
45.56141494573951
 30
0.0
 11
-900.9009473860199
 21
30.56141494573951
 31
0.0
  0
LINE
  5
53
330
48
100
AcDbEntity
  8
1
  6
Continuous
 62
     7
100
AcDbLine
 10
-883.548346008534
 20
45.5614149457395
 30
0.0
 11
-883.548346008534
 21
30.56141494573951
 31
0.0
  0
LINE
  5
54
330
48
100
AcDbEntity
  8
1
  6
Continuous
 62
     7
100
AcDbLine
 10
-1010.90094738602
 20
45.5614149457395
 30
0.0
 11
-1010.90094738602
 21
30.56141494573951
 31
0.0
  0
LINE
  5
55
330
48
100
AcDbEntity
  8
1
  6
Continuous
 62
     7
100
AcDbLine
 10
-1000.40094738602
 20
235.5614149457397
 30
0.0
 11
-1000.40094738602
 21
220.5614149457397
 31
0.0
  0
LINE
  5
56
330
48
100
AcDbEntity
  8
1
  6
Continuous
 62
     7
100
AcDbLine
 10
-1148.90094738602
 20
25.56141494573951
 30
0.0
 11
-851.9009473860199
 21
25.56141494573951
 31
0.0
  0
LINE
  5
57
330
48
100
AcDbEntity
  8
1
  6
Continuous
 62
     7
100
AcDbLine
 10
-1148.90094738602
 20
235.5614149457397
 30
0.0
 11
-1148.90094738602
 21
25.56141494573951
 31
0.0
  0
LINE
  5
58
330
48
100
AcDbEntity
  8
1
  6
Continuous
 62
     7
100
AcDbLine
 10
-851.9009473860199
 20
235.5614149457397
 30
0.0
 11
-1148.90094738602
 21
235.5614149457397
 31
0.0
  0
LINE
  5
59
330
48
100
AcDbEntity
  8
1
  6
Continuous
 62
     7
100
AcDbLine
 10
-851.9009473860199
 20
25.56141494573951
 30
0.0
 11
-851.9009473860199
 21
235.5614149457397
 31
0.0
  0
LINE
  5
5A
330
48
100
AcDbEntity
  8
1
  6
Continuous
 62
     7
100
AcDbLine
 10
-1143.90094738602
 20
30.56141494573951
 30
0.0
 11
-856.9009473860199
 21
30.56141494573951
 31
0.0
  0
LINE
  5
5B
330
48
100
AcDbEntity
  8
1
  6
Continuous
 62
     7
100
AcDbLine
 10
-856.9009473860199
 20
30.56141494573951
 30
0.0
 11
-856.9009473860199
 21
214.5614149457396
 31
0.0
  0
LINE
  5
5C
330
48
100
AcDbEntity
  8
1
  6
Continuous
 62
     7
100
AcDbLine
 10
-856.9009473860199
 20
214.5614149457396
 30
0.0
 11
-1143.90094738602
 21
214.5614149457396
 31
0.0
  0
LINE
  5
5D
102
{ACAD_REACTORS
330
AB
102
}
330
48
100
AcDbEntity
  8
1
  6
Continuous
 62
     7
100
AcDbLine
 10
-867.8913133639439
 20
35.63891478557214
 30
0.0
 11
-867.8913133639439
 21
40.48391510590689
 31
0.0
  0
LINE
  5
5E
102
{ACAD_REACTORS
330
A8
102
}
330
48
100
AcDbEntity
  8
1
  6
Continuous
 62
     7
100
AcDbLine
 10
-869.224646697277
 20
38.06141494573951
 30
0.0
 11
-869.224646697277
 21
39.79346575330835
 31
0.0
  0
LINE
  5
5F
102
{ACAD_REACTORS
330
A8
102
}
330
48
100
AcDbEntity
  8
1
  6
Continuous
 62
     7
100
AcDbLine
 10
-869.224646697277
 20
39.79346575330835
 30
0.0
 11
-870.0803091299799
 21
38.31141494573951
 31
0.0
  0
LINE
  5
60
102
{ACAD_REACTORS
330
A8
102
}
330
48
100
AcDbEntity
  8
1
  6
Continuous
 62
     7
100
AcDbLine
 10
-870.3689842645749
 20
38.31141494573951
 30
0.0
 11
-871.224646697277
 21
39.79346575330835
 31
0.0
  0
LINE
  5
61
102
{ACAD_REACTORS
330
A8
102
}
330
48
100
AcDbEntity
  8
1
  6
Continuous
 62
     7
100
AcDbLine
 10
-871.224646697277
 20
39.79346575330835
 30
0.0
 11
-871.224646697277
 21
38.06141494573951
 31
0.0
  0
LINE
  5
62
330
48
100
AcDbEntity
  8
1
  6
Continuous
 62
     7
100
AcDbLine
 10
-878.641081972419
 20
38.20577921008085
 30
0.0
 11
-870.224646697277
 21
43.0614149457395
 31
0.0
  0
LINE
  5
63
330
48
100
AcDbEntity
  8
1
  6
Continuous
 62
     7
100
AcDbLine
 10
-870.224646697277
 20
43.0614149457395
 30
0.0
 11
-861.8082114221361
 21
38.20577921008085
 31
0.0
  0
LINE
  5
64
330
48
100
AcDbEntity
  8
1
  6
Continuous
 62
     7
100
AcDbLine
 10
-861.8082114221361
 20
37.91705068139807
 30
0.0
 11
-870.224646697277
 21
33.06141494573951
 31
0.0
  0
LINE
  5
65
330
48
100
AcDbEntity
  8
1
  6
Continuous
 62
     7
100
AcDbLine
 10
-870.224646697277
 20
33.06141494573951
 30
0.0
 11
-878.641081972419
 21
37.91705068139807
 31
0.0
  0
LINE
  5
66
102
{ACAD_REACTORS
330
A8
102
}
330
48
100
AcDbEntity
  8
1
  6
Continuous
 62
     7
100
AcDbLine
 10
-871.8913133639439
 20
38.06141494573951
 30
0.0
 11
-871.8913133639439
 21
41.29263225777409
 31
0.0
  0
LINE
  5
67
102
{ACAD_REACTORS
330
A8
102
}
330
48
100
AcDbEntity
  8
1
  6
Continuous
 62
     7
100
AcDbLine
 10
-871.396879680321
 20
41.4251153640118
 30
0.0
 11
-870.224646697277
 21
39.39474827907277
 31
0.0
  0
LINE
  5
68
102
{ACAD_REACTORS
330
A8
102
}
330
48
100
AcDbEntity
  8
1
  6
Continuous
 62
     7
100
AcDbLine
 10
-871.8913133639439
 20
38.06141494573951
 30
0.0
 11
-871.8913133639439
 21
36.40900001837242
 31
0.0
  0
LINE
  5
69
102
{ACAD_REACTORS
330
A8
102
}
330
48
100
AcDbEntity
  8
1
  6
Continuous
 62
     7
100
AcDbLine
 10
-871.224646697277
 20
36.40900001837242
 30
0.0
 11
-871.224646697277
 21
38.06141494573951
 31
0.0
  0
LINE
  5
6A
102
{ACAD_REACTORS
330
A8
102
}
330
48
100
AcDbEntity
  8
1
  6
Continuous
 62
     7
100
AcDbLine
 10
-869.224646697277
 20
38.06141494573951
 30
0.0
 11
-869.224646697277
 21
34.86968401634131
 31
0.0
  0
LINE
  5
6B
102
{ACAD_REACTORS
330
A8
102
}
330
48
100
AcDbEntity
  8
1
  6
Continuous
 62
     7
100
AcDbLine
 10
-868.5579800306109
 20
34.86968401634131
 30
0.0
 11
-868.5579800306109
 21
41.29263225777409
 31
0.0
  0
LINE
  5
6C
102
{ACAD_REACTORS
330
A8
102
}
330
48
100
AcDbEntity
  8
1
  6
Continuous
 62
     7
100
AcDbLine
 10
-869.052413714234
 20
41.4251153640118
 30
0.0
 11
-870.224646697277
 21
39.39474827907277
 31
0.0
  0
LINE
  5
6D
102
{ACAD_REACTORS
330
A9
102
}
330
48
100
AcDbEntity
  8
1
  6
Continuous
 62
     7
100
AcDbLine
 10
-873.224646697277
 20
35.8314360937721
 30
0.0
 11
-873.224646697277
 21
40.48391510590689
 31
0.0
  0
LINE
  5
6E
102
{ACAD_REACTORS
330
A9
102
}
330
48
100
AcDbEntity
  8
1
  6
Continuous
 62
     7
100
AcDbLine
 10
-872.5579800306109
 20
40.48391510590689
 30
0.0
 11
-872.5579800306109
 21
35.83143609377221
 31
0.0
  0
LINE
  5
6F
102
{ACAD_REACTORS
330
A9
102
}
330
48
100
AcDbEntity
  8
1
  6
Continuous
 62
     7
100
AcDbLine
 10
-872.5579800306109
 20
35.83143609377221
 30
0.0
 11
-870.3914058794469
 21
34.58148946810111
 31
0.0
  0
LINE
  5
70
102
{ACAD_REACTORS
330
A9
102
}
330
48
100
AcDbEntity
  8
1
  6
Continuous
 62
     7
100
AcDbLine
 10
-870.724554181774
 20
34.00403241073532
 30
0.0
 11
-872.8911283329369
 21
35.25397903640642
 31
0.0
  0
LINE
  5
71
102
{ACAD_REACTORS
330
AA
102
}
330
48
100
AcDbEntity
  8
1
  6
Continuous
 62
     7
100
AcDbLine
 10
-873.8913133639439
 20
39.71468433667617
 30
0.0
 11
-873.8913133639439
 21
36.60066686300281
 31
0.0
  0
LINE
  5
72
102
{ACAD_REACTORS
330
AA
102
}
330
48
100
AcDbEntity
  8
1
  6
Continuous
 62
     7
100
AcDbLine
 10
-873.8913133639439
 20
36.60066686300281
 30
0.0
 11
-873.8913133639439
 21
36.40814555480274
 31
0.0
  0
LINE
  5
73
102
{ACAD_REACTORS
330
AA
102
}
330
48
100
AcDbEntity
  8
1
  6
Continuous
 62
     7
100
AcDbLine
 10
-874.5579800306109
 20
36.40814555480274
 30
0.0
 11
-874.5579800306109
 21
39.71468433667617
 31
0.0
  0
LINE
  5
74
102
{ACAD_REACTORS
330
AB
102
}
330
48
100
AcDbEntity
  8
1
  6
Continuous
 62
     7
100
AcDbLine
 10
-867.3914058794469
 20
40.77264363458978
 30
0.0
 11
-866.0580725461141
 21
40.00341286535895
 31
0.0
  0
LINE
  5
75
102
{ACAD_REACTORS
330
AB
102
}
330
48
100
AcDbEntity
  8
1
  6
Continuous
 62
     7
100
AcDbLine
 10
-866.3912208484401
 20
39.42595580799328
 30
0.0
 11
-867.224646697277
 21
39.90677841309146
 31
0.0
  0
LINE
  5
76
102
{ACAD_REACTORS
330
AB
102
}
330
48
100
AcDbEntity
  8
1
  6
Continuous
 62
     7
100
AcDbLine
 10
-867.224646697277
 20
39.90677841309146
 30
0.0
 11
-867.224646697277
 21
38.39474827907277
 31
0.0
  0
LINE
  5
77
102
{ACAD_REACTORS
330
AB
102
}
330
48
100
AcDbEntity
  8
1
  6
Continuous
 62
     7
100
AcDbLine
 10
-867.224646697277
 20
38.39474827907277
 30
0.0
 11
-866.224646697277
 21
38.39474827907277
 31
0.0
  0
LINE
  5
78
102
{ACAD_REACTORS
330
AB
102
}
330
48
100
AcDbEntity
  8
1
  6
Continuous
 62
     7
100
AcDbLine
 10
-866.224646697277
 20
37.72808161240614
 30
0.0
 11
-867.224646697277
 21
37.72808161240614
 31
0.0
  0
LINE
  5
79
102
{ACAD_REACTORS
330
AB
102
}
330
48
100
AcDbEntity
  8
1
  6
Continuous
 62
     7
100
AcDbLine
 10
-867.224646697277
 20
37.72808161240614
 30
0.0
 11
-867.224646697277
 21
36.21605147838746
 31
0.0
  0
LINE
  5
7A
102
{ACAD_REACTORS
330
AB
102
}
330
48
100
AcDbEntity
  8
1
  6
Continuous
 62
     7
100
AcDbLine
 10
-867.224646697277
 20
36.21605147838746
 30
0.0
 11
-866.3912208484401
 21
36.69687408348575
 31
0.0
  0
LINE
  5
7B
102
{ACAD_REACTORS
330
AB
102
}
330
48
100
AcDbEntity
  8
1
  6
Continuous
 62
     7
100
AcDbLine
 10
-866.0580725461141
 20
36.11941702611985
 30
0.0
 11
-867.3914058794469
 21
35.35018625688925
 31
0.0
  0
LINE
  5
7C
330
48
100
AcDbEntity
  8
1
  6
Continuous
 62
     7
100
AcDbLine
 10
-1040.90094738602
 20
50.5614149457395
 30
0.0
 11
-856.9009473860199
 21
50.56141494573951
 31
0.0
  0
LINE
  5
7D
330
48
100
AcDbEntity
  8
1
  6
Continuous
 62
     7
100
AcDbLine
 10
-1033.90094738602
 20
45.5614149457395
 30
0.0
 11
-1033.90094738602
 21
50.56141494573951
 31
0.0
  0
LINE
  5
7E
330
48
100
AcDbEntity
  8
1
  6
Continuous
 62
     7
100
AcDbLine
 10
-1015.90094738602
 20
45.5614149457395
 30
0.0
 11
-1015.90094738602
 21
50.5614149457395
 31
0.0
  0
LINE
  5
7F
330
48
100
AcDbEntity
  8
1
  6
Continuous
 62
     7
100
AcDbLine
 10
-1040.90094738602
 20
55.5614149457395
 30
0.0
 11
-856.9009473860199
 21
55.56141494573951
 31
0.0
  0
LINE
  5
80
330
48
100
AcDbEntity
  8
1
  6
Continuous
 62
     7
100
AcDbLine
 10
-1033.90094738602
 20
50.56141494573951
 30
0.0
 11
-1033.90094738602
 21
55.5614149457395
 31
0.0
  0
LINE
  5
81
330
48
100
AcDbEntity
  8
1
  6
Continuous
 62
     7
100
AcDbLine
 10
-1015.90094738602
 20
50.5614149457395
 30
0.0
 11
-1015.90094738602
 21
55.56141494573951
 31
0.0
  0
LINE
  5
82
330
48
100
AcDbEntity
  8
1
  6
Continuous
 62
     7
100
AcDbLine
 10
-1040.90094738602
 20
60.5614149457395
 30
0.0
 11
-856.9009473860199
 21
60.5614149457395
 31
0.0
  0
LINE
  5
83
330
48
100
AcDbEntity
  8
1
  6
Continuous
 62
     7
100
AcDbLine
 10
-1033.90094738602
 20
55.5614149457395
 30
0.0
 11
-1033.90094738602
 21
60.5614149457395
 31
0.0
  0
LINE
  5
84
330
48
100
AcDbEntity
  8
1
  6
Continuous
 62
     7
100
AcDbLine
 10
-1015.90094738602
 20
55.56141494573951
 30
0.0
 11
-1015.90094738602
 21
60.56141494573951
 31
0.0
  0
LINE
  5
85
330
48
100
AcDbEntity
  8
1
  6
Continuous
 62
     7
100
AcDbLine
 10
-1040.90094738602
 20
65.56141494573951
 30
0.0
 11
-856.9009473860199
 21
65.56141494573951
 31
0.0
  0
LINE
  5
86
330
48
100
AcDbEntity
  8
1
  6
Continuous
 62
     7
100
AcDbLine
 10
-1033.90094738602
 20
60.5614149457395
 30
0.0
 11
-1033.90094738602
 21
65.56141494573951
 31
0.0
  0
LINE
  5
87
330
48
100
AcDbEntity
  8
1
  6
Continuous
 62
     7
100
AcDbLine
 10
-1015.90094738602
 20
60.56141494573951
 30
0.0
 11
-1015.90094738602
 21
65.56141494573951
 31
0.0
  0
LINE
  5
88
330
48
100
AcDbEntity
  8
1
  6
Continuous
 62
     7
100
AcDbLine
 10
-1143.90094738602
 20
214.5614149457396
 30
0.0
 11
-1143.90094738602
 21
30.56141494573951
 31
0.0
  0
LINE
  5
89
330
48
100
AcDbEntity
  8
1
  6
Continuous
 62
     7
100
AcDbLine
 10
-1040.90094738602
 20
45.5614149457395
 30
0.0
 11
-856.9009473860199
 21
45.5614149457395
 31
0.0
  0
LINE
  5
8A
330
48
100
AcDbEntity
  8
1
  6
Continuous
 62
     7
100
AcDbLine
 10
-1040.90094738602
 20
30.5614149457394
 30
0.0
 11
-1040.90094738602
 21
65.56141494573951
 31
0.0
  0
ARC
  5
8B
102
{ACAD_REACTORS
330
A8
102
}
330
48
100
AcDbEntity
  8
1
  6
Continuous
 62
     7
100
AcDbCircle
 10
-871.626347151469
 20
41.29263225777409
 30
0.0
 40
0.264966212475135
100
AcDbArc
 50
30.00000000003666
 51
180.0
  0
ARC
  5
8C
102
{ACAD_REACTORS
330
A8
102
}
330
48
100
AcDbEntity
  8
1
  6
Continuous
 62
     7
100
AcDbCircle
 10
-871.5579800306109
 20
36.40900001837242
 30
0.0
 40
0.3333333333330302
100
AcDbArc
 50
180.0
 51
0.0
  0
ARC
  5
8D
102
{ACAD_REACTORS
330
A8
102
}
330
48
100
AcDbEntity
  8
1
  6
Continuous
 62
     7
100
AcDbCircle
 10
-868.8913133639439
 20
34.86968401634131
 30
0.0
 40
0.3333333333330302
100
AcDbArc
 50
180.0
 51
0.0
  0
ARC
  5
8E
102
{ACAD_REACTORS
330
A8
102
}
330
48
100
AcDbEntity
  8
1
  6
Continuous
 62
     7
100
AcDbCircle
 10
-868.8229462430859
 20
41.29263225777409
 30
0.0
 40
0.2649662124749739
100
AcDbArc
 50
0.0
 51
149.9999999999879
  0
ARC
  5
8F
102
{ACAD_REACTORS
330
A9
102
}
330
48
100
AcDbEntity
  8
1
  6
Continuous
 62
     7
100
AcDbCircle
 10
-872.8913133639439
 20
40.48391510590689
 30
0.0
 40
0.3333333333330302
100
AcDbArc
 50
0.0
 51
180.0
  0
ARC
  5
90
102
{ACAD_REACTORS
330
A9
102
}
330
48
100
AcDbEntity
  8
1
  6
Continuous
 62
     7
100
AcDbCircle
 10
-870.5579800306109
 20
34.29276093941822
 30
0.0
 40
0.3333333333333202
100
AcDbArc
 50
240.0183606311669
 51
60.01836063103026
  0
ARC
  5
91
102
{ACAD_REACTORS
330
AA
102
}
330
48
100
AcDbEntity
  8
1
  6
Continuous
 62
     7
100
AcDbCircle
 10
-874.224646697277
 20
39.71468433667617
 30
0.0
 40
0.3333333333330302
100
AcDbArc
 50
0.0
 51
180.0
  0
ARC
  5
92
102
{ACAD_REACTORS
330
AA
102
}
330
48
100
AcDbEntity
  8
1
  6
Continuous
 62
     7
100
AcDbCircle
 10
-874.224646697277
 20
36.40814555480274
 30
0.0
 40
0.3333333333339397
100
AcDbArc
 50
180.0
 51
0.0
  0
ARC
  5
93
102
{ACAD_REACTORS
330
AB
102
}
330
48
100
AcDbEntity
  8
1
  6
Continuous
 62
     7
100
AcDbCircle
 10
-866.224646697277
 20
39.71468433667617
 30
0.0
 40
0.3333333333333079
100
AcDbArc
 50
240.0183606311657
 51
60.01836063119038
  0
ARC
  5
94
102
{ACAD_REACTORS
330
AB
102
}
330
48
100
AcDbEntity
  8
1
  6
Continuous
 62
     7
100
AcDbCircle
 10
-866.224646697277
 20
38.06141494573951
 30
0.0
 40
0.3333333333333641
100
AcDbArc
 50
270.0
 51
90.0
  0
ARC
  5
95
102
{ACAD_REACTORS
330
AB
102
}
330
48
100
AcDbEntity
  8
1
  6
Continuous
 62
     7
100
AcDbCircle
 10
-866.224646697277
 20
36.40814555480274
 30
0.0
 40
0.3333333333332005
100
AcDbArc
 50
299.9816393687998
 51
119.9816393688239
  0
ARC
  5
96
102
{ACAD_REACTORS
330
A8
102
}
330
48
100
AcDbEntity
  8
1
  6
Continuous
 62
     7
100
AcDbCircle
 10
-870.224646697277
 20
38.39474827907277
 30
0.0
 40
0.1666666666671054
100
AcDbArc
 50
209.9999999998856
 51
329.999999999958
  0
ARC
  5
97
102
{ACAD_REACTORS
330
A9
102
}
330
48
100
AcDbEntity
  8
1
  6
Continuous
 62
     7
100
AcDbCircle
 10
-872.5579800306109
 20
35.83143609377221
 30
0.0
 40
0.6666666666660603
100
AcDbArc
 50
180.0000000000097
 51
240.0183606311832
  0
ARC
  5
98
330
48
100
AcDbEntity
  8
1
  6
Continuous
 62
     7
100
AcDbCircle
 10
-878.5577948968371
 20
38.06141494573951
 30
0.0
 40
0.1666666666667352
100
AcDbArc
 50
119.9816393689536
 51
240.0183606310635
  0
ARC
  5
99
330
48
100
AcDbEntity
  8
1
  6
Continuous
 62
     7
100
AcDbCircle
 10
-861.8914984977171
 20
38.06141494573951
 30
0.0
 40
0.1666666666663668
100
AcDbArc
 50
299.9816393686656
 51
60.01836063131725
  0
ARC
  5
9A
102
{ACAD_REACTORS
330
AB
102
}
330
48
100
AcDbEntity
  8
1
  6
Continuous
 62
     7
100
AcDbCircle
 10
-867.5579800306109
 20
40.48391510590689
 30
0.0
 40
0.3333333333337624
100
AcDbArc
 50
60.01836063103026
 51
180.0
  0
ARC
  5
9B
102
{ACAD_REACTORS
330
AB
102
}
330
48
100
AcDbEntity
  8
1
  6
Continuous
 62
     7
100
AcDbCircle
 10
-867.5579800306109
 20
35.63891478557214
 30
0.0
 40
0.3333333333330302
100
AcDbArc
 50
180.0
 51
299.9816393689698
  0
MTEXT
  5
9D
330
48
100
AcDbEntity
  8
1
 62
     7
100
AcDbMText
 10
-1029.30094738602
 20
33.06141494573939
 30
0.0
 40
3.0
 41
0.0
 71
     4
 72
     1
  1
Pezzimenti
  7
CONVERTER_11
 73
     1
 44
1.32052821128451
  0
MTEXT
  5
9E
330
48
100
AcDbEntity
  8
1
 62
     7
100
AcDbMText
 10
-1039.90094738602
 20
33.06141494573939
 30
0.0
 40
3.0
 41
0.0
 71
     4
 72
     1
  1
Sign.
  7
CONVERTER_11
 73
     1
 44
1.32052821128451
  0
MTEXT
  5
9F
330
48
100
AcDbEntity
  8
1
 62
     7
100
AcDbMText
 10
-1029.30094738602
 20
38.06141494573939
 30
0.0
 40
3.0
 41
0.0
 71
     4
 72
     1
  1
20/06/14
  7
CONVERTER_11
 73
     1
 44
1.32052821128451
  0
MTEXT
  5
A0
330
48
100
AcDbEntity
  8
1
 62
     7
100
AcDbMText
 10
-1039.90094738602
 20
38.06141494573939
 30
0.0
 40
3.0
 41
0.0
 71
     4
 72
     1
  1
Date
  7
CONVERTER_11
 73
     1
 44
1.32052821128451
  0
MTEXT
  5
A2
330
48
100
AcDbEntity
  8
1
 62
     7
100
AcDbMText
 10
-1025.90094738602
 20
43.06141494573946
 30
0.0
 40
2.5
 41
0.0
 71
     5
 72
     1
  1
dimensions in mm
  7
CONVERTER_12
 73
     1
 44
0.60024009603842
  0
MTEXT
  5
A3
330
48
100
AcDbEntity
  8
1
 62
     7
100
AcDbMText
 10
-997.40094738602
 20
219.5614149457397
 30
0.0
 40
4.0
 41
0.0
 71
     5
 72
     1
  1
Diritti riservati      All rights reserved
  7
CONVERTER_11
 73
     1
 44
1.32052821128451
  0
MTEXT
  5
A5
330
48
100
AcDbEntity
  8
1
 62
     7
100
AcDbMText
 10
-1009.624646697277
 20
38.06141494573951
 30
0.0
 40
4.5
 41
0.0
 71
     4
 72
     1
  1
MFVN 10.32\PHood with pegs, top entry, M32, high construction - LS TYPE
  7
CONVERTER_13
 73
     1
 44
0.90036014405762
  0
MTEXT
  5
A6
330
48
100
AcDbEntity
  8
1
 62
     7
100
AcDbMText
 10
-892.224646697277
 20
41.82205436649549
 30
0.0
 40
3.0
 41
0.0
 71
     5
 72
     1
  1
Scale
  7
CONVERTER_11
 73
     1
 44
1.32052821128451
  0
MTEXT
  5
A7
330
48
100
AcDbEntity
  8
1
 62
     7
100
AcDbMText
 10
-892.224646697277
 20
35.62205436649556
 30
0.0
 40
4.5
 41
0.0
 71
     5
 72
     1
  1
1:1
  7
CONVERTER_11
 73
     1
 44
1.32052821128451
  0
HATCH
  5
A8
330
48
100
AcDbEntity
  8
1
  6
Continuous
 62
     7
100
AcDbHatch
 10
0.0
 20
0.0
 30
0.0
210
0.0
220
0.0
230
1.0
  2
SOLID
 70
     1
 71
     1
 91
        1
 92
        1
 93
       16
 72
     2
 10
-871.626347151469
 20
41.29263225777409
 40
0.264966212475135
 50
30.00000000003666
 51
180.0
 73
     1
 72
     1
 10
-871.8913133639439
 20
41.29263225777409
 11
-871.8913133639439
 21
38.06141494573951
 72
     1
 10
-871.8913133639439
 20
38.06141494573951
 11
-871.8913133639439
 21
36.40900001837242
 72
     2
 10
-871.5579800306109
 20
36.40900001837242
 40
0.3333333333330302
 50
180.0
 51
360.0
 73
     1
 72
     1
 10
-871.224646697277
 20
36.40900001837242
 11
-871.224646697277
 21
38.06141494573951
 72
     1
 10
-871.224646697277
 20
38.06141494573951
 11
-871.224646697277
 21
39.79346575330835
 72
     1
 10
-871.224646697277
 20
39.79346575330835
 11
-870.3689842645749
 21
38.31141494573951
 72
     2
 10
-870.224646697277
 20
38.39474827907277
 40
0.1666666666671054
 50
209.9999999998856
 51
329.999999999958
 73
     1
 72
     1
 10
-870.0803091299799
 20
38.31141494573951
 11
-869.224646697277
 21
39.79346575330835
 72
     1
 10
-869.224646697277
 20
39.79346575330835
 11
-869.224646697277
 21
38.06141494573951
 72
     1
 10
-869.224646697277
 20
38.06141494573951
 11
-869.224646697277
 21
34.86968401634131
 72
     2
 10
-868.8913133639439
 20
34.86968401634131
 40
0.3333333333330302
 50
180.0
 51
360.0
 73
     1
 72
     1
 10
-868.5579800306109
 20
34.86968401634131
 11
-868.5579800306109
 21
41.29263225777409
 72
     2
 10
-868.8229462430859
 20
41.29263225777409
 40
0.2649662124749739
 50
0.0
 51
149.9999999999879
 73
     1
 72
     1
 10
-869.052413714234
 20
41.4251153640118
 11
-870.224646697277
 21
39.39474827907277
 72
     1
 10
-870.224646697277
 20
39.39474827907277
 11
-871.396879680321
 21
41.4251153640118
 97
       16
330
6C
330
8E
330
6B
330
8D
330
6A
330
5E
330
5F
330
96
330
60
330
61
330
69
330
8C
330
68
330
66
330
8B
330
67
 75
     0
 76
     1
 98
        1
 10
0.0
 20
0.0
  0
HATCH
  5
A9
330
48
100
AcDbEntity
  8
1
  6
Continuous
 62
     7
100
AcDbHatch
 10
0.0
 20
0.0
 30
0.0
210
0.0
220
0.0
230
1.0
  2
SOLID
 70
     1
 71
     1
 91
        1
 92
        1
 93
        7
 72
     1
 10
-872.5579800306109
 20
40.48391510590689
 11
-872.5579800306109
 21
35.83143609377221
 72
     1
 10
-872.5579800306109
 20
35.83143609377221
 11
-870.3914058794469
 21
34.58148946810111
 72
     2
 10
-870.5579800306109
 20
34.29276093941822
 40
0.3333333333333202
 50
299.9816393689698
 51
479.9816393688332
 73
     0
 72
     1
 10
-870.724554181774
 20
34.00403241073532
 11
-872.8911283329369
 21
35.25397903640642
 72
     2
 10
-872.5579800306109
 20
35.83143609377221
 40
0.6666666666660603
 50
119.9816393688168
 51
179.9999999999902
 73
     0
 72
     1
 10
-873.224646697277
 20
35.8314360937721
 11
-873.224646697277
 21
40.48391510590689
 72
     2
 10
-872.8913133639439
 20
40.48391510590689
 40
0.3333333333330302
 50
180.0
 51
360.0
 73
     0
 97
        7
330
6E
330
6F
330
90
330
70
330
97
330
6D
330
8F
 75
     0
 76
     1
 98
        1
 10
0.0
 20
0.0
  0
HATCH
  5
AA
330
48
100
AcDbEntity
  8
1
  6
Continuous
 62
     7
100
AcDbHatch
 10
0.0
 20
0.0
 30
0.0
210
0.0
220
0.0
230
1.0
  2
SOLID
 70
     1
 71
     1
 91
        1
 92
        1
 93
        5
 72
     1
 10
-873.8913133639439
 20
39.71468433667617
 11
-873.8913133639439
 21
36.60066686300281
 72
     1
 10
-873.8913133639439
 20
36.60066686300281
 11
-873.8913133639439
 21
36.40814555480274
 72
     2
 10
-874.224646697277
 20
36.40814555480274
 40
0.3333333333339397
 50
0.0
 51
180.0
 73
     0
 72
     1
 10
-874.5579800306109
 20
36.40814555480274
 11
-874.5579800306109
 21
39.71468433667617
 72
     2
 10
-874.224646697277
 20
39.71468433667617
 40
0.3333333333330302
 50
180.0
 51
360.0
 73
     0
 97
        5
330
71
330
72
330
92
330
73
330
91
 75
     0
 76
     1
 98
        1
 10
0.0
 20
0.0
  0
HATCH
  5
AB
330
48
100
AcDbEntity
  8
1
  6
Continuous
 62
     7
100
AcDbHatch
 10
0.0
 20
0.0
 30
0.0
210
0.0
220
0.0
230
1.0
  2
SOLID
 70
     1
 71
     1
 91
        1
 92
        1
 93
       14
 72
     1
 10
-866.3912208484401
 20
39.42595580799328
 11
-867.224646697277
 21
39.90677841309146
 72
     1
 10
-867.224646697277
 20
39.90677841309146
 11
-867.224646697277
 21
38.39474827907277
 72
     1
 10
-867.224646697277
 20
38.39474827907277
 11
-866.224646697277
 21
38.39474827907277
 72
     2
 10
-866.224646697277
 20
38.06141494573951
 40
0.3333333333333641
 50
270.0
 51
450.0
 73
     0
 72
     1
 10
-866.224646697277
 20
37.72808161240614
 11
-867.224646697277
 21
37.72808161240614
 72
     1
 10
-867.224646697277
 20
37.72808161240614
 11
-867.224646697277
 21
36.21605147838746
 72
     1
 10
-867.224646697277
 20
36.21605147838746
 11
-866.3912208484401
 21
36.69687408348575
 72
     2
 10
-866.224646697277
 20
36.40814555480274
 40
0.3333333333332005
 50
240.0183606311761
 51
420.0183606312001
 73
     0
 72
     1
 10
-866.0580725461141
 20
36.11941702611985
 11
-867.3914058794469
 21
35.35018625688925
 72
     2
 10
-867.5579800306109
 20
35.63891478557214
 40
0.3333333333330302
 50
60.01836063103026
 51
180.0
 73
     0
 72
     1
 10
-867.8913133639439
 20
35.63891478557214
 11
-867.8913133639439
 21
40.48391510590689
 72
     2
 10
-867.5579800306109
 20
40.48391510590689
 40
0.3333333333337624
 50
180.0
 51
299.9816393689698
 73
     0
 72
     1
 10
-867.3914058794469
 20
40.77264363458978
 11
-866.0580725461141
 21
40.00341286535895
 72
     2
 10
-866.224646697277
 20
39.71468433667617
 40
0.3333333333333079
 50
299.9816393688097
 51
479.9816393688344
 73
     0
 97
       14
330
74
330
9A
330
5D
330
9B
330
7B
330
95
330
7A
330
79
330
78
330
94
330
77
330
76
330
75
330
93
 75
     0
 76
     1
 98
        1
 10
0.0
 20
0.0
  0
ENDBLK
  5
4A
330
48
100
AcDbEntity
  8
0
100
AcDbBlockEnd
  0
BLOCK
  5
4D
330
4B
100
AcDbEntity
  8
0
100
AcDbBlockBegin
  2
A4_oriz
 70
     0
 10
297.0000000000002
 20
0.0
 30
0.0
  3
A4_oriz
  1

  0
INSERT
  5
4C
330
4B
100
AcDbEntity
  8
1
100
AcDbBlockReference
  2
_formato_A4
 10
297.0000000000002
 20
0.0
 30
0.0
  0
ENDBLK
  5
4E
330
4B
100
AcDbEntity
  8
0
100
AcDbBlockEnd
  0
BLOCK
  5
24A
330
243
100
AcDbEntity
  8
0
100
AcDbBlockBegin
  2
*D3
 70
     1
 10
0.0
 20
0.0
 30
0.0
  3
*D3
  1

  0
LINE
  5
244
330
243
100
AcDbEntity
  8
1
  6
Continuous
 62
     2
100
AcDbLine
 10
132.9632057991255
 20
67.40386207241245
 30
0.0
 11
59.96320579912549
 21
67.40386207241245
 31
0.0
  0
LINE
  5
245
330
243
100
AcDbEntity
  8
1
  6
Continuous
 62
     2
100
AcDbLine
 10
132.9632057991255
 20
76.90386207241174
 30
0.0
 11
132.9632057991255
 21
66.40386207241245
 31
0.0
  0
LINE
  5
246
330
243
100
AcDbEntity
  8
1
  6
Continuous
 62
     2
100
AcDbLine
 10
59.96320579912549
 20
76.90386207241174
 30
0.0
 11
59.96320579912549
 21
66.40386207241245
 31
0.0
  0
SOLID
  5
247
330
243
100
AcDbEntity
  8
1
 62
     2
100
AcDbTrace
 10
129.9632057991255
 20
67.00890457965026
 30
0.0
 11
129.9632057991255
 21
67.79881956517464
 31
0.0
 12
132.9632057991255
 22
67.40386207241245
 32
0.0
 13
132.9632057991255
 23
67.40386207241245
 33
0.0
  0
SOLID
  5
248
330
243
100
AcDbEntity
  8
1
 62
     2
100
AcDbTrace
 10
62.96320579912549
 20
67.79881956517464
 30
0.0
 11
62.96320579912549
 21
67.00890457965026
 31
0.0
 12
59.96320579912549
 22
67.40386207241245
 32
0.0
 13
59.96320579912549
 23
67.40386207241245
 33
0.0
  0
MTEXT
  5
249
330
243
100
AcDbEntity
  8
1
 62
     4
100
AcDbMText
 10
94.21320579912549
 20
69.40386207241245
 30
0.0
 40
3.0
 41
0.0
 71
     7
 72
     1
  1
73
  7
CONVERTER_14
 11
0.9999999999970619
 21
2.424068405545306E-6
 31
0.0
 73
     1
 44
0.60024009603842
  0
ENDBLK
  5
24B
330
243
100
AcDbEntity
  8
0
100
AcDbBlockEnd
  0
BLOCK
  5
255
330
24E
100
AcDbEntity
  8
0
100
AcDbBlockBegin
  2
*D4
 70
     1
 10
0.0
 20
0.0
 30
0.0
  3
*D4
  1

  0
LINE
  5
24F
330
24E
100
AcDbEntity
  8
1
  6
Continuous
 62
     2
100
AcDbLine
 10
235.9652047002552
 20
67.40386207241245
 30
0.0
 11
192.9652047002552
 21
67.40386207241245
 31
0.0
  0
LINE
  5
250
330
24E
100
AcDbEntity
  8
1
  6
Continuous
 62
     2
100
AcDbLine
 10
235.9652047002552
 20
76.90386207157265
 30
0.0
 11
235.9652047002552
 21
66.40386207241245
 31
0.0
  0
LINE
  5
251
330
24E
100
AcDbEntity
  8
1
  6
Continuous
 62
     2
100
AcDbLine
 10
192.9652047002552
 20
76.90386207156776
 30
0.0
 11
192.9652047002552
 21
66.40386207241245
 31
0.0
  0
SOLID
  5
252
330
24E
100
AcDbEntity
  8
1
 62
     2
100
AcDbTrace
 10
232.9652047002552
 20
67.00890457965026
 30
0.0
 11
232.9652047002552
 21
67.79881956517464
 31
0.0
 12
235.9652047002552
 22
67.40386207241245
 32
0.0
 13
235.9652047002552
 23
67.40386207241245
 33
0.0
  0
SOLID
  5
253
330
24E
100
AcDbEntity
  8
1
 62
     2
100
AcDbTrace
 10
195.9652047002552
 20
67.79881956517464
 30
0.0
 11
195.9652047002552
 21
67.00890457965026
 31
0.0
 12
192.9652047002552
 22
67.40386207241245
 32
0.0
 13
192.9652047002552
 23
67.40386207241245
 33
0.0
  0
MTEXT
  5
254
330
24E
100
AcDbEntity
  8
1
 62
     4
100
AcDbMText
 10
212.2152047002552
 20
69.40386207241245
 30
0.0
 40
3.0
 41
0.0
 71
     7
 72
     1
  1
43
  7
CONVERTER_14
 11
0.9999999999970619
 21
2.424068405545306E-6
 31
0.0
 73
     1
 44
0.60024009603842
  0
ENDBLK
  5
256
330
24E
100
AcDbEntity
  8
0
100
AcDbBlockEnd
  0
BLOCK
  5
260
330
259
100
AcDbEntity
  8
0
100
AcDbBlockBegin
  2
*D5
 70
     1
 10
0.0
 20
0.0
 30
0.0
  3
*D5
  1

  0
LINE
  5
25A
330
259
100
AcDbEntity
  8
1
  6
Continuous
 62
     2
100
AcDbLine
 10
174.305837424418
 20
147.4138620715684
 30
0.0
 11
174.305837424418
 21
77.40386207156838
 31
0.0
  0
LINE
  5
25B
330
259
100
AcDbEntity
  8
1
  6
Continuous
 62
     2
100
AcDbLine
 10
198.4652047002472
 20
147.4138620715684
 30
0.0
 11
173.305837424418
 21
147.4138620715684
 31
0.0
  0
LINE
  5
25C
330
259
100
AcDbEntity
  8
1
  6
Continuous
 62
     2
100
AcDbLine
 10
198.4652047002552
 20
77.40386207156838
 30
0.0
 11
173.305837424418
 21
77.40386207156838
 31
0.0
  0
SOLID
  5
25D
330
259
100
AcDbEntity
  8
1
 62
     2
100
AcDbTrace
 10
174.7007949171802
 20
144.4138620715684
 30
0.0
 11
173.9108799316558
 21
144.4138620715684
 31
0.0
 12
174.305837424418
 22
147.4138620715684
 32
0.0
 13
174.305837424418
 23
147.4138620715684
 33
0.0
  0
SOLID
  5
25E
330
259
100
AcDbEntity
  8
1
 62
     2
100
AcDbTrace
 10
173.9108799316558
 20
80.40386207156838
 30
0.0
 11
174.7007949171802
 21
80.40386207156838
 31
0.0
 12
174.305837424418
 22
77.40386207156838
 32
0.0
 13
174.305837424418
 23
77.40386207156838
 33
0.0
  0
MTEXT
  5
25F
330
259
100
AcDbEntity
  8
1
 62
     4
100
AcDbMText
 10
172.305837424418
 20
110.1588620715684
 30
0.0
 40
3.0
 41
0.0
 71
     7
 72
     1
  1
70
  7
CONVERTER_14
 11
0.0
 21
1.0
 31
0.0
 73
     1
 44
0.60024009603842
  0
ENDBLK
  5
261
330
259
100
AcDbEntity
  8
0
100
AcDbBlockEnd
  0
BLOCK
  5
26B
330
264
100
AcDbEntity
  8
0
100
AcDbBlockBegin
  2
*D6
 70
     1
 10
0.0
 20
0.0
 30
0.0
  3
*D6
  1

  0
LINE
  5
265
330
264
100
AcDbEntity
  8
1
  6
Continuous
 62
     2
100
AcDbLine
 10
80.46320579912549
 20
163.964912646716
 30
0.0
 11
112.5
 21
163.964912646716
 31
0.0
  0
LINE
  5
266
330
264
100
AcDbEntity
  8
1
  6
Continuous
 62
     2
100
AcDbLine
 10
80.46320579912549
 20
147.9138620724122
 30
0.0
 11
80.46320579912549
 21
164.964912646716
 31
0.0
  0
LINE
  5
267
330
264
100
AcDbEntity
  8
1
  6
Continuous
 62
     2
100
AcDbLine
 10
112.5
 20
147.9138620724122
 30
0.0
 11
112.5
 21
164.964912646716
 31
0.0
  0
SOLID
  5
268
330
264
100
AcDbEntity
  8
1
 62
     2
100
AcDbTrace
 10
83.46320579912549
 20
164.3598701394782
 30
0.0
 11
83.46320579912549
 21
163.5699551539538
 31
0.0
 12
80.46320579912549
 22
163.964912646716
 32
0.0
 13
80.46320579912549
 23
163.964912646716
 33
0.0
  0
SOLID
  5
269
330
264
100
AcDbEntity
  8
1
 62
     2
100
AcDbTrace
 10
109.5
 20
163.5699551539538
 30
0.0
 11
109.5
 21
164.3598701394782
 31
0.0
 12
112.5
 22
163.964912646716
 32
0.0
 13
112.5
 23
163.964912646716
 33
0.0
  0
MTEXT
  5
26A
330
264
100
AcDbEntity
  8
1
 62
     4
100
AcDbMText
 10
92.58160289956274
 20
165.964912646716
 30
0.0
 40
3.0
 41
0.0
 71
     7
 72
     1
  1
M32
  7
CONVERTER_14
 11
0.9999999999970619
 21
2.424068405545306E-6
 31
0.0
 73
     1
 44
0.60024009603842
  0
ENDBLK
  5
26C
330
264
100
AcDbEntity
  8
0
100
AcDbBlockEnd
  0
ENDSEC
  0
SECTION
  2
ENTITIES
  0
INSERT
  5
4F
330
1F
100
AcDbEntity
  8
0
100
AcDbBlockReference
  2
A4_oriz
 10
297.0000000000002
 20
0.0
 30
0.0
  0
LINE
  5
D0
330
1F
100
AcDbEntity
  8
Sichtbare_Kanten_TC_020513_DIN_
  6
Continuous
 62
     7
100
AcDbLine
 10
96.46320579912546
 20
125.6638620724123
 30
0.0
 11
95.33820579912546
 21
127.2174418860982
 31
0.0
  0
LINE
  5
D1
330
1F
100
AcDbEntity
  8
Sichtbare_Kanten_TC_020513_DIN_
  6
Continuous
 62
     7
100
AcDbLine
 10
95.33820579912546
 20
127.2174418860982
 30
0.0
 11
95.33820579912546
 21
123.2270830260493
 31
0.0
  0
LINE
  5
D2
330
1F
100
AcDbEntity
  8
Sichtbare_Kanten_TC_020513_DIN_
  6
Continuous
 62
     7
100
AcDbLine
 10
94.58820579912546
 20
123.2270830260493
 30
0.0
 11
94.58820579912546
 21
128.3746795803143
 31
0.0
  0
LINE
  5
D3
330
1F
100
AcDbEntity
  8
Sichtbare_Kanten_TC_020513_DIN_
  6
Continuous
 62
     7
100
AcDbLine
 10
95.26693465861533
 20
128.5946199811333
 30
0.0
 11
96.46320579912546
 21
126.9426175850531
 31
0.0
  0
LINE
  5
D4
330
1F
100
AcDbEntity
  8
Sichtbare_Kanten_TC_020513_DIN_
  6
Continuous
 62
     7
100
AcDbLine
 10
96.46320579912546
 20
126.9426175850531
 30
0.0
 11
97.65947693963446
 21
128.5946199811333
 31
0.0
  0
LINE
  5
D5
330
1F
100
AcDbEntity
  8
Sichtbare_Kanten_TC_020513_DIN_
  6
Continuous
 62
     7
100
AcDbLine
 10
98.33820579912546
 20
128.3746795803143
 30
0.0
 11
98.33820579912546
 21
121.4530445645113
 31
0.0
  0
LINE
  5
D6
330
1F
100
AcDbEntity
  8
Sichtbare_Kanten_TC_020513_DIN_
  6
Continuous
 62
     7
100
AcDbLine
 10
97.58820579912546
 20
121.4530445645113
 30
0.0
 11
97.58820579912546
 21
127.2174418860982
 31
0.0
  0
LINE
  5
D7
330
1F
100
AcDbEntity
  8
Sichtbare_Kanten_TC_020513_DIN_
  6
Continuous
 62
     7
100
AcDbLine
 10
97.58820579912546
 20
127.2174418860982
 30
0.0
 11
96.46320579912546
 21
125.6638620724123
 31
0.0
  0
LINE
  5
D8
330
1F
100
AcDbEntity
  8
Sichtbare_Kanten_TC_020513_DIN_
  6
Continuous
 62
     7
100
AcDbLine
 10
93.76320579912519
 20
127.4660257341602
 30
0.0
 11
93.76320579912519
 21
122.5782848823901
 31
0.0
  0
LINE
  5
D9
330
1F
100
AcDbEntity
  8
Sichtbare_Kanten_TC_020513_DIN_
  6
Continuous
 62
     7
100
AcDbLine
 10
93.76320579912519
 20
122.5782848823901
 30
0.0
 11
96.65060171918319
 21
120.9124795438942
 31
0.0
  0
LINE
  5
DA
330
1F
100
AcDbEntity
  8
Sichtbare_Kanten_TC_020513_DIN_
  6
Continuous
 62
     7
100
AcDbLine
 10
96.27580987906637
 20
120.2628403543581
 30
0.0
 11
93.20080987906633
 21
122.0368788158963
 31
0.0
  0
LINE
  5
DB
330
1F
100
AcDbEntity
  8
Sichtbare_Kanten_TC_020513_DIN_
  6
Continuous
 62
     7
100
AcDbLine
 10
93.01320579912519
 20
122.3616984106642
 30
0.0
 11
93.01320579912519
 21
127.4660257341602
 31
0.0
  0
LINE
  5
DC
330
1F
100
AcDbEntity
  8
Sichtbare_Kanten_TC_020513_DIN_
  6
Continuous
 62
     7
100
AcDbLine
 10
86.71320579912546
 20
124.9138620724123
 30
0.0
 11
96.46320579912546
 21
130.5388620724123
 31
0.0
  0
LINE
  5
DD
330
1F
100
AcDbEntity
  8
Sichtbare_Kanten_TC_020513_DIN_
  6
Continuous
 62
     7
100
AcDbLine
 10
96.46320579912546
 20
130.5388620724123
 30
0.0
 11
106.2132057991255
 21
124.9138620724123
 31
0.0
  0
LINE
  5
DE
330
1F
100
AcDbEntity
  8
Sichtbare_Kanten_TC_020513_DIN_
  6
Continuous
 62
     7
100
AcDbLine
 10
106.2132057991255
 20
124.9138620724123
 30
0.0
 11
96.46320579912546
 21
119.2888620724123
 31
0.0
  0
LINE
  5
DF
330
1F
100
AcDbEntity
  8
Sichtbare_Kanten_TC_020513_DIN_
  6
Continuous
 62
     7
100
AcDbLine
 10
96.46320579912546
 20
119.2888620724123
 30
0.0
 11
86.71320579912546
 21
124.9138620724123
 31
0.0
  0
LINE
  5
E0
330
1F
100
AcDbEntity
  8
Sichtbare_Kanten_TC_020513_DIN_
  6
Continuous
 62
     7
100
AcDbLine
 10
96.46320579912546
 20
130.1059294468413
 30
0.0
 11
87.46362235011517
 21
124.9138620724123
 31
0.0
  0
LINE
  5
E1
330
1F
100
AcDbEntity
  8
Sichtbare_Kanten_TC_020513_DIN_
  6
Continuous
 62
     7
100
AcDbLine
 10
105.4627892481344
 20
124.9138620724123
 30
0.0
 11
96.46320579912546
 21
130.1059294468413
 31
0.0
  0
LINE
  5
E2
330
1F
100
AcDbEntity
  8
Sichtbare_Kanten_TC_020513_DIN_
  6
Continuous
 62
     7
100
AcDbLine
 10
96.46320579912546
 20
119.7217946979832
 30
0.0
 11
105.4627892481344
 21
124.9138620724123
 31
0.0
  0
LINE
  5
E3
330
1F
100
AcDbEntity
  8
Sichtbare_Kanten_TC_020513_DIN_
  6
Continuous
 62
     7
100
AcDbLine
 10
87.46362235011517
 20
124.9138620724123
 30
0.0
 11
96.46320579912546
 21
119.7217946979832
 31
0.0
  0
LINE
  5
E4
330
1F
100
AcDbEntity
  8
Sichtbare_Kanten_TC_020513_DIN_
  6
Continuous
 62
     7
100
AcDbLine
 10
92.26320579912519
 20
126.6006411187753
 30
0.0
 11
92.26320579912519
 21
123.2270830260493
 31
0.0
  0
LINE
  5
E5
330
1F
100
AcDbEntity
  8
Sichtbare_Kanten_TC_020513_DIN_
  6
Continuous
 62
     7
100
AcDbLine
 10
91.51320579912519
 20
123.2270830260493
 30
0.0
 11
91.51320579912519
 21
126.6006411187753
 31
0.0
  0
LINE
  5
E6
330
1F
100
AcDbEntity
  8
Sichtbare_Kanten_TC_020513_DIN_
  6
Continuous
 62
     7
100
AcDbLine
 10
99.65060171918319
 20
127.8341145596972
 30
0.0
 11
101.9006017191832
 21
126.5360376366203
 31
0.0
  0
LINE
  5
E7
330
1F
100
AcDbEntity
  8
Sichtbare_Kanten_TC_020513_DIN_
  6
Continuous
 62
     7
100
AcDbLine
 10
101.5258098790664
 20
125.8863984470844
 30
0.0
 11
99.83820579912546
 21
126.8600161855123
 31
0.0
  0
LINE
  5
E8
330
1F
100
AcDbEntity
  8
Sichtbare_Kanten_TC_020513_DIN_
  6
Continuous
 62
     7
100
AcDbLine
 10
99.83820579912546
 20
126.8600161855123
 30
0.0
 11
99.83820579912546
 21
125.2888620724123
 31
0.0
  0
LINE
  5
E9
330
1F
100
AcDbEntity
  8
Sichtbare_Kanten_TC_020513_DIN_
  6
Continuous
 62
     7
100
AcDbLine
 10
99.83820579912546
 20
125.2888620724123
 30
0.0
 11
101.7132057991255
 21
125.2888620724123
 31
0.0
  0
LINE
  5
EA
330
1F
100
AcDbEntity
  8
Sichtbare_Kanten_TC_020513_DIN_
  6
Continuous
 62
     7
100
AcDbLine
 10
101.7132057991255
 20
124.5388620724123
 30
0.0
 11
99.83820579912546
 21
124.5388620724123
 31
0.0
  0
LINE
  5
EB
330
1F
100
AcDbEntity
  8
Sichtbare_Kanten_TC_020513_DIN_
  6
Continuous
 62
     7
100
AcDbLine
 10
99.83820579912546
 20
124.5388620724123
 30
0.0
 11
99.83820579912546
 21
122.9677079593132
 31
0.0
  0
LINE
  5
EC
330
1F
100
AcDbEntity
  8
Sichtbare_Kanten_TC_020513_DIN_
  6
Continuous
 62
     7
100
AcDbLine
 10
99.83820579912546
 20
122.9677079593132
 30
0.0
 11
101.5258098790664
 21
123.9413256977403
 31
0.0
  0
LINE
  5
ED
330
1F
100
AcDbEntity
  8
Sichtbare_Kanten_TC_020513_DIN_
  6
Continuous
 62
     7
100
AcDbLine
 10
101.9006017191832
 20
123.2916865082043
 30
0.0
 11
99.65060171918319
 21
121.9936095851272
 31
0.0
  0
LINE
  5
EE
330
1F
100
AcDbEntity
  8
Sichtbare_Kanten_TC_020513_DIN_
  6
Continuous
 62
     7
100
AcDbLine
 10
99.08820579912546
 20
122.3184291798953
 30
0.0
 11
99.08820579912546
 21
127.5092949649294
 31
0.0
  0
LINE
  5
EF
330
1F
100
AcDbEntity
  8
0
  6
Continuous
 62
     7
100
AcDbLine
 10
186.9642047002548
 20
81.51386207156703
 30
0.0
 11
186.9642047002542
 21
86.31386207156704
 31
0.0
  0
LINE
  5
F0
330
1F
100
AcDbEntity
  8
0
  6
Continuous
 62
     7
100
AcDbLine
 10
191.4642047002548
 20
81.51386207156754
 30
0.0
 11
191.4642047002545
 21
83.91386207156755
 31
0.0
  0
LINE
  5
F1
330
1F
100
AcDbEntity
  8
0
  6
Continuous
 62
     7
100
AcDbLine
 10
191.4642047002545
 20
83.91386207156755
 30
0.0
 11
191.4642047002542
 21
86.31386207156756
 31
0.0
  0
LINE
  5
F2
330
1F
100
AcDbEntity
  8
0
  6
Continuous
 62
     7
100
AcDbLine
 10
198.9652047002552
 20
77.40386207156844
 30
0.0
 11
192.9652047002552
 21
77.40386207156776
 31
0.0
  0
LINE
  5
F3
330
1F
100
AcDbEntity
  8
0
  6
Continuous
 62
     7
100
AcDbLine
 10
198.9652047002538
 20
89.66386207094025
 30
0.0
 11
192.9652047002538
 21
89.66386207156775
 31
0.0
  0
LINE
  5
F4
330
1F
100
AcDbEntity
  8
0
  6
Continuous
 62
     7
100
AcDbLine
 10
192.9652047002536
 20
92.16386207156775
 30
0.0
 11
192.9652047002536
 21
91.16486198817886
 31
0.0
  0
LINE
  5
F5
330
1F
100
AcDbEntity
  8
0
  6
Continuous
 62
     7
100
AcDbLine
 10
193.6652046999396
 20
90.36386207188194
 30
0.0
 11
192.9652047002538
 21
89.66386207156775
 31
0.0
  0
LINE
  5
F6
330
1F
100
AcDbEntity
  8
0
  6
Continuous
 62
     7
100
AcDbLine
 10
193.6652047002536
 20
90.46386207156785
 30
0.0
 11
192.9652047002536
 21
91.16486198817886
 31
0.0
  0
LINE
  5
F7
330
1F
100
AcDbEntity
  8
0
  6
Continuous
 62
     7
100
AcDbLine
 10
191.4642047002548
 20
81.51386207156754
 30
0.0
 11
192.9642047002549
 21
80.01386207156774
 31
0.0
  0
LINE
  5
F8
330
1F
100
AcDbEntity
  8
0
  6
Continuous
 62
     7
100
AcDbLine
 10
191.4642047002542
 20
86.31386207156756
 30
0.0
 11
192.9642047002541
 21
87.81386207156775
 31
0.0
  0
LINE
  5
F9
330
1F
100
AcDbEntity
  8
0
  6
Continuous
 62
     7
100
AcDbLine
 10
191.4642047002542
 20
86.31386207156756
 30
0.0
 11
186.9642047002542
 21
86.31386207156704
 31
0.0
  0
LINE
  5
FA
330
1F
100
AcDbEntity
  8
0
  6
Continuous
 62
     7
100
AcDbLine
 10
191.4642047002548
 20
81.51386207156754
 30
0.0
 11
186.9642047002548
 21
81.51386207156703
 31
0.0
  0
LINE
  5
FB
330
1F
100
AcDbEntity
  8
0
  6
Continuous
 62
     7
100
AcDbLine
 10
215.9652047002536
 20
91.16486207157034
 30
0.0
 11
229.9652047002536
 21
91.16436207188603
 31
0.0
  0
LINE
  5
FC
330
1F
100
AcDbEntity
  8
0
  6
Continuous
 62
     7
100
AcDbLine
 10
229.9652047002536
 20
92.16336207125785
 30
0.0
 11
215.9652047002536
 21
92.16286207157036
 31
0.0
  0
LINE
  5
FD
330
1F
100
AcDbEntity
  8
0
  6
Continuous
 62
     7
100
AcDbLine
 10
235.9662046273344
 20
92.16286214386186
 30
0.0
 11
229.9652047002536
 21
92.16336207125785
 31
0.0
  0
LINE
  5
FE
330
1F
100
AcDbEntity
  8
0
  6
Continuous
 62
     7
100
AcDbLine
 10
235.2652047002534
 20
92.8638620715725
 30
0.0
 11
235.9662046273344
 21
92.16286214386186
 31
0.0
  0
LINE
  5
FF
330
1F
100
AcDbEntity
  8
0
  6
Continuous
 62
     7
100
AcDbLine
 10
235.9652047002536
 20
91.16286198886574
 30
0.0
 11
235.9662046273344
 21
92.16286214386186
 31
0.0
  0
LINE
  5
100
330
1F
100
AcDbEntity
  8
0
  6
Continuous
 62
     7
100
AcDbLine
 10
198.9652047002528
 20
98.6638620718825
 30
0.0
 11
192.9652047005669
 21
98.66386207188181
 31
0.0
  0
LINE
  5
101
330
1F
100
AcDbEntity
  8
0
  6
Continuous
 62
     7
100
AcDbLine
 10
192.9652047002529
 20
97.1638620715677
 30
0.0
 11
192.9652047005671
 21
96.16386207188181
 31
0.0
  0
LINE
  5
102
330
1F
100
AcDbEntity
  8
0
  6
Continuous
 62
     7
100
AcDbLine
 10
198.965204700253
 20
96.1638620718826
 30
0.0
 11
192.9652047005671
 21
96.16386207188181
 31
0.0
  0
LINE
  5
103
330
1F
100
AcDbEntity
  8
0
  6
Continuous
 62
     7
100
AcDbLine
 10
193.6652046999391
 20
95.3638620718819
 30
0.0
 11
193.6652047002532
 21
95.4638620715678
 31
0.0
  0
LINE
  5
104
330
1F
100
AcDbEntity
  8
0
  6
Continuous
 62
     7
100
AcDbLine
 10
193.6652046999391
 20
95.3638620718819
 30
0.0
 11
198.9652047002531
 21
95.36386207188251
 31
0.0
  0
LINE
  5
105
330
1F
100
AcDbEntity
  8
0
  6
Continuous
 62
     7
100
AcDbLine
 10
192.9652047002533
 20
94.6638620715678
 30
0.0
 11
192.9652047005675
 21
93.66386207188181
 31
0.0
  0
LINE
  5
106
330
1F
100
AcDbEntity
  8
0
  6
Continuous
 62
     7
100
AcDbLine
 10
198.9652047002534
 20
93.6638620718826
 30
0.0
 11
192.9652047005675
 21
93.66386207188181
 31
0.0
  0
LINE
  5
107
330
1F
100
AcDbEntity
  8
0
  6
Continuous
 62
     7
100
AcDbLine
 10
198.9652047002535
 20
92.9638620712544
 30
0.0
 11
193.6652047002534
 21
92.9638620715678
 31
0.0
  0
LINE
  5
108
330
1F
100
AcDbEntity
  8
0
  6
Continuous
 62
     7
100
AcDbLine
 10
212.9652047002535
 20
92.96386207157
 30
0.0
 11
198.9652047002535
 21
92.9638620712544
 31
0.0
  0
LINE
  5
109
330
1F
100
AcDbEntity
  8
0
  6
Continuous
 62
     7
100
AcDbLine
 10
193.6652047002534
 20
92.9638620715678
 30
0.0
 11
192.9652047005675
 21
93.66386207188181
 31
0.0
  0
LINE
  5
10A
330
1F
100
AcDbEntity
  8
0
  6
Continuous
 62
     7
100
AcDbLine
 10
192.9652047002533
 20
94.6638620715678
 30
0.0
 11
198.9652047002533
 21
94.6638620712543
 31
0.0
  0
LINE
  5
10B
330
1F
100
AcDbEntity
  8
0
  6
Continuous
 62
     7
100
AcDbLine
 10
193.6652046999391
 20
95.3638620718819
 30
0.0
 11
192.9652047002533
 21
94.6638620715678
 31
0.0
  0
LINE
  5
10C
330
1F
100
AcDbEntity
  8
0
  6
Continuous
 62
     7
100
AcDbLine
 10
198.9652047002531
 20
95.4638620712544
 30
0.0
 11
193.6652047002532
 21
95.4638620715678
 31
0.0
  0
LINE
  5
10D
330
1F
100
AcDbEntity
  8
0
  6
Continuous
 62
     7
100
AcDbLine
 10
193.6652047002532
 20
95.4638620715678
 30
0.0
 11
192.9652047005671
 21
96.16386207188181
 31
0.0
  0
LINE
  5
10E
330
1F
100
AcDbEntity
  8
0
  6
Continuous
 62
     7
100
AcDbLine
 10
192.9652047002529
 20
97.1638620715677
 30
0.0
 11
198.9652047002529
 21
97.1638620712543
 31
0.0
  0
LINE
  5
10F
330
1F
100
AcDbEntity
  8
0
  6
Continuous
 62
     7
100
AcDbLine
 10
193.6652047002528
 20
97.9638620715678
 30
0.0
 11
192.9652047005669
 21
98.66386207188181
 31
0.0
  0
LINE
  5
110
330
1F
100
AcDbEntity
  8
0
  6
Continuous
 62
     7
100
AcDbLine
 10
193.6652046999394
 20
92.8638620718819
 30
0.0
 11
198.9652047002535
 21
92.86386207188251
 31
0.0
  0
LINE
  5
111
330
1F
100
AcDbEntity
  8
0
  6
Continuous
 62
     7
100
AcDbLine
 10
198.9652047002535
 20
92.86386207188251
 30
0.0
 11
212.9652047002535
 21
92.86386207157
 31
0.0
  0
LINE
  5
112
330
1F
100
AcDbEntity
  8
0
  6
Continuous
 62
     7
100
AcDbLine
 10
193.6652046999387
 20
97.8638620718819
 30
0.0
 11
198.9652047002529
 21
97.8638620715684
 31
0.0
  0
LINE
  5
113
330
1F
100
AcDbEntity
  8
0
  6
Continuous
 62
     7
100
AcDbLine
 10
198.9652047002529
 20
97.9638620715684
 30
0.0
 11
193.6652047002528
 21
97.9638620715678
 31
0.0
  0
LINE
  5
114
330
1F
100
AcDbEntity
  8
0
  6
Continuous
 62
     7
100
AcDbLine
 10
215.9652047002535
 20
92.9638620715703
 30
0.0
 11
215.9652047002535
 21
92.86386207157041
 31
0.0
  0
LINE
  5
115
330
1F
100
AcDbEntity
  8
0
  6
Continuous
 62
     7
100
AcDbLine
 10
215.9652047002534
 20
93.6638620715703
 30
0.0
 11
215.9652047002535
 21
92.9638620715703
 31
0.0
  0
LINE
  5
116
330
1F
100
AcDbEntity
  8
0
  6
Continuous
 62
     7
100
AcDbLine
 10
229.9652047002535
 20
92.9638620712579
 30
0.0
 11
235.2652047005676
 21
92.9638620712584
 31
0.0
  0
LINE
  5
117
330
1F
100
AcDbEntity
  8
0
  6
Continuous
 62
     7
100
AcDbLine
 10
215.9652047002535
 20
92.9638620715703
 30
0.0
 11
229.9652047002535
 21
92.9638620712579
 31
0.0
  0
LINE
  5
118
330
1F
100
AcDbEntity
  8
0
  6
Continuous
 62
     7
100
AcDbLine
 10
235.2652047005676
 20
92.9638620712584
 30
0.0
 11
235.2652047002534
 21
92.8638620715725
 31
0.0
  0
LINE
  5
119
330
1F
100
AcDbEntity
  8
0
  6
Continuous
 62
     7
100
AcDbLine
 10
235.2652047002534
 20
92.8638620715725
 30
0.0
 11
229.9652047002535
 21
92.863862071886
 31
0.0
  0
LINE
  5
11A
330
1F
100
AcDbEntity
  8
0
  6
Continuous
 62
     7
100
AcDbLine
 10
198.9652047002536
 20
92.16336207125435
 30
0.0
 11
192.9652047002536
 21
92.16386207156775
 31
0.0
  0
LINE
  5
11B
330
1F
100
AcDbEntity
  8
0
  6
Continuous
 62
     7
100
AcDbLine
 10
212.9652047002536
 20
92.16286207156993
 30
0.0
 11
198.9652047002536
 21
92.16336207125435
 31
0.0
  0
LINE
  5
11C
330
1F
100
AcDbEntity
  8
0
  6
Continuous
 62
     7
100
AcDbLine
 10
229.9652047002535
 20
92.863862071886
 30
0.0
 11
215.9652047002535
 21
92.86386207157041
 31
0.0
  0
LINE
  5
11D
330
1F
100
AcDbEntity
  8
0
  6
Continuous
 62
     7
100
AcDbLine
 10
235.2652047005676
 20
92.9638620712584
 30
0.0
 11
235.9652047002534
 21
93.66386207157261
 31
0.0
  0
LINE
  5
11E
330
1F
100
AcDbEntity
  8
0
  6
Continuous
 62
     7
100
AcDbLine
 10
237.4662047002541
 20
86.31386207157276
 30
0.0
 11
235.966204700254
 21
87.81386207157264
 31
0.0
  0
LINE
  5
11F
330
1F
100
AcDbEntity
  8
0
  6
Continuous
 62
     7
100
AcDbLine
 10
237.4662047002541
 20
86.31386207157276
 30
0.0
 11
237.4662047002545
 21
83.91386207157284
 31
0.0
  0
LINE
  5
120
330
1F
100
AcDbEntity
  8
0
  6
Continuous
 62
     7
100
AcDbLine
 10
237.4662047002545
 20
83.91386207157284
 30
0.0
 11
237.4662047002547
 21
81.51386207157286
 31
0.0
  0
LINE
  5
121
330
1F
100
AcDbEntity
  8
0
  6
Continuous
 62
     7
100
AcDbLine
 10
235.966204700254
 20
87.81386207157264
 30
0.0
 11
235.9652047002538
 21
89.66386207157264
 31
0.0
  0
LINE
  5
122
330
1F
100
AcDbEntity
  8
0
  6
Continuous
 62
     7
100
AcDbLine
 10
235.9652047002552
 20
77.41386207157264
 30
0.0
 11
235.9662047002549
 21
80.01386207157263
 31
0.0
  0
LINE
  5
123
330
1F
100
AcDbEntity
  8
0
  6
Continuous
 62
     7
100
AcDbLine
 10
235.9652047002552
 20
77.40386207157265
 30
0.0
 11
235.9652047002552
 21
77.41386207157264
 31
0.0
  0
LINE
  5
124
330
1F
100
AcDbEntity
  8
0
  6
Continuous
 62
     7
100
AcDbLine
 10
235.9662047002549
 20
80.01386207157263
 30
0.0
 11
235.966204700254
 21
87.81386207157264
 31
0.0
  0
LINE
  5
125
330
1F
100
AcDbEntity
  8
0
  6
Continuous
 62
     7
100
AcDbLine
 10
229.9652047002552
 20
77.40386207157194
 30
0.0
 11
235.9652047002552
 21
77.40386207157265
 31
0.0
  0
LINE
  5
126
330
1F
100
AcDbEntity
  8
0
  6
Continuous
 62
     7
100
AcDbLine
 10
229.9652047002552
 20
77.40386207157194
 30
0.0
 11
198.9652047002552
 21
77.40386207156844
 31
0.0
  0
LINE
  5
127
330
1F
100
AcDbEntity
  8
0
  6
Continuous
 62
     7
100
AcDbLine
 10
229.9652047002538
 20
89.66336207125785
 30
0.0
 11
215.9652047002538
 21
89.66286207157036
 31
0.0
  0
LINE
  5
128
330
1F
100
AcDbEntity
  8
0
  6
Continuous
 62
     7
100
AcDbLine
 10
212.9652047002538
 20
89.66286207156993
 30
0.0
 11
198.9652047002538
 21
89.66386207094025
 31
0.0
  0
LINE
  5
129
330
1F
100
AcDbEntity
  8
0
  6
Continuous
 62
     7
100
AcDbLine
 10
237.4662047002547
 20
81.51386207157286
 30
0.0
 11
235.9662047002549
 21
80.01386207157263
 31
0.0
  0
LINE
  5
12A
330
1F
100
AcDbEntity
  8
0
  6
Continuous
 62
     7
100
AcDbLine
 10
212.9652047002535
 20
92.86386207157
 30
0.0
 11
212.9652047002535
 21
92.96386207157
 31
0.0
  0
LINE
  5
12B
330
1F
100
AcDbEntity
  8
0
  6
Continuous
 62
     7
100
AcDbLine
 10
212.9652047002536
 20
92.16286207156993
 30
0.0
 11
212.9652047002535
 21
92.86386207157
 31
0.0
  0
LINE
  5
12C
330
1F
100
AcDbEntity
  8
0
  6
Continuous
 62
     7
100
AcDbLine
 10
212.9652047002535
 20
92.96386207157
 30
0.0
 11
212.9652047002534
 21
93.66386207157011
 31
0.0
  0
LINE
  5
12D
330
1F
100
AcDbEntity
  8
0
  6
Continuous
 62
     7
100
AcDbLine
 10
215.9652047002535
 20
92.86386207157041
 30
0.0
 11
215.9652047002536
 21
92.16286207157036
 31
0.0
  0
LINE
  5
12E
330
1F
100
AcDbEntity
  8
0
  6
Continuous
 62
     7
100
AcDbLine
 10
212.9652047002534
 20
93.66386207157011
 30
0.0
 11
198.9652047002534
 21
93.6638620718826
 31
0.0
  0
LINE
  5
12F
330
1F
100
AcDbEntity
  8
0
  6
Continuous
 62
     7
100
AcDbLine
 10
237.4662047002541
 20
86.31386207157276
 30
0.0
 11
241.9662047002541
 21
86.31386207157335
 31
0.0
  0
LINE
  5
130
330
1F
100
AcDbEntity
  8
0
  6
Continuous
 62
     7
100
AcDbLine
 10
241.9662047002541
 20
86.31386207157335
 30
0.0
 11
241.9662047002547
 21
81.51386207157334
 31
0.0
  0
LINE
  5
131
330
1F
100
AcDbEntity
  8
0
  6
Continuous
 62
     7
100
AcDbLine
 10
229.9652047002538
 20
90.46386207157194
 30
0.0
 11
235.2652047005678
 21
90.46386207125845
 31
0.0
  0
LINE
  5
132
330
1F
100
AcDbEntity
  8
0
  6
Continuous
 62
     7
100
AcDbLine
 10
215.9652047002538
 20
90.46386207157035
 30
0.0
 11
229.9652047002538
 21
90.46386207157194
 31
0.0
  0
LINE
  5
133
330
1F
100
AcDbEntity
  8
0
  6
Continuous
 62
     7
100
AcDbLine
 10
235.2652047005678
 20
90.46386207125845
 30
0.0
 11
235.2652047002538
 21
90.36386207157254
 31
0.0
  0
LINE
  5
134
330
1F
100
AcDbEntity
  8
0
  6
Continuous
 62
     7
100
AcDbLine
 10
235.2652047005678
 20
90.46386207125845
 30
0.0
 11
235.9652047002536
 21
91.16286198886574
 31
0.0
  0
LINE
  5
135
330
1F
100
AcDbEntity
  8
0
  6
Continuous
 62
     7
100
AcDbLine
 10
235.9652047002538
 20
89.66386207157264
 30
0.0
 11
229.9652047002538
 21
89.66336207125785
 31
0.0
  0
LINE
  5
136
330
1F
100
AcDbEntity
  8
0
  6
Continuous
 62
     7
100
AcDbLine
 10
235.2652047002538
 20
90.36386207157254
 30
0.0
 11
229.9652047002538
 21
90.36386207157194
 31
0.0
  0
LINE
  5
137
330
1F
100
AcDbEntity
  8
0
  6
Continuous
 62
     7
100
AcDbLine
 10
229.9652047002538
 20
90.36386207157194
 30
0.0
 11
215.9652047002538
 21
90.36386207157035
 31
0.0
  0
LINE
  5
138
330
1F
100
AcDbEntity
  8
0
  6
Continuous
 62
     7
100
AcDbLine
 10
229.9652047002536
 20
91.16436207188603
 30
0.0
 11
235.9652047002536
 21
91.16286198886574
 31
0.0
  0
LINE
  5
139
330
1F
100
AcDbEntity
  8
0
  6
Continuous
 62
     7
100
AcDbLine
 10
193.6652046999396
 20
90.36386207188194
 30
0.0
 11
198.9652047002538
 21
90.36386207188254
 31
0.0
  0
LINE
  5
13A
330
1F
100
AcDbEntity
  8
0
  6
Continuous
 62
     7
100
AcDbLine
 10
198.9652047002538
 20
90.36386207188254
 30
0.0
 11
212.9652047002538
 21
90.36386207157004
 31
0.0
  0
LINE
  5
13B
330
1F
100
AcDbEntity
  8
0
  6
Continuous
 62
     7
100
AcDbLine
 10
198.9652047002538
 20
90.46386207125435
 30
0.0
 11
193.6652047002536
 21
90.46386207156785
 31
0.0
  0
LINE
  5
13C
330
1F
100
AcDbEntity
  8
0
  6
Continuous
 62
     7
100
AcDbLine
 10
212.9652047002538
 20
90.46386207157003
 30
0.0
 11
198.9652047002538
 21
90.46386207125435
 31
0.0
  0
LINE
  5
13D
330
1F
100
AcDbEntity
  8
0
  6
Continuous
 62
     7
100
AcDbLine
 10
193.6652046999396
 20
90.36386207188194
 30
0.0
 11
193.6652047002536
 21
90.46386207156785
 31
0.0
  0
LINE
  5
13E
330
1F
100
AcDbEntity
  8
0
  6
Continuous
 62
     7
100
AcDbLine
 10
212.9652047002538
 20
90.36386207157004
 30
0.0
 11
212.9652047002538
 21
90.46386207157003
 31
0.0
  0
LINE
  5
13F
330
1F
100
AcDbEntity
  8
0
  6
Continuous
 62
     7
100
AcDbLine
 10
212.9652047002538
 20
89.66286207156993
 30
0.0
 11
212.9652047002538
 21
90.36386207157004
 31
0.0
  0
LINE
  5
140
330
1F
100
AcDbEntity
  8
0
  6
Continuous
 62
     7
100
AcDbLine
 10
212.9652047002538
 20
90.46386207157003
 30
0.0
 11
212.9652047002536
 21
91.16486207157006
 31
0.0
  0
LINE
  5
141
330
1F
100
AcDbEntity
  8
0
  6
Continuous
 62
     7
100
AcDbLine
 10
215.9652047002538
 20
90.46386207157035
 30
0.0
 11
215.9652047002538
 21
90.36386207157035
 31
0.0
  0
LINE
  5
142
330
1F
100
AcDbEntity
  8
0
  6
Continuous
 62
     7
100
AcDbLine
 10
215.9652047002538
 20
90.36386207157035
 30
0.0
 11
215.9652047002538
 21
89.66286207157036
 31
0.0
  0
LINE
  5
143
330
1F
100
AcDbEntity
  8
0
  6
Continuous
 62
     7
100
AcDbLine
 10
215.9652047002536
 20
91.16486207157034
 30
0.0
 11
215.9652047002538
 21
90.46386207157035
 31
0.0
  0
LINE
  5
144
330
1F
100
AcDbEntity
  8
0
  6
Continuous
 62
     7
100
AcDbLine
 10
192.9652047002536
 20
91.16486198817886
 30
0.0
 11
198.9652047002536
 21
91.16436207188254
 31
0.0
  0
LINE
  5
145
330
1F
100
AcDbEntity
  8
0
  6
Continuous
 62
     7
100
AcDbLine
 10
198.9652047002536
 20
91.16436207188254
 30
0.0
 11
212.9652047002536
 21
91.16486207157006
 31
0.0
  0
LINE
  5
146
330
1F
100
AcDbEntity
  8
0
  6
Continuous
 62
     7
100
AcDbLine
 10
235.2652047002538
 20
90.36386207157254
 30
0.0
 11
235.9652047002538
 21
89.66386207157264
 31
0.0
  0
LINE
  5
147
330
1F
100
AcDbEntity
  8
0
  6
Continuous
 62
     7
100
AcDbLine
 10
237.4662047002547
 20
81.51386207157286
 30
0.0
 11
241.9662047002547
 21
81.51386207157334
 31
0.0
  0
LINE
  5
148
330
1F
100
AcDbEntity
  8
0
  6
Continuous
 62
     7
100
AcDbLine
 10
198.9652047002472
 20
147.4138620715684
 30
0.0
 11
195.4652047002472
 21
147.413862071568
 31
0.0
  0
LINE
  5
149
330
1F
100
AcDbEntity
  8
0
  6
Continuous
 62
     7
100
AcDbLine
 10
192.9652047002517
 20
108.4138620715677
 30
0.0
 11
192.9652047002526
 21
100.3699809897837
 31
0.0
  0
LINE
  5
14A
330
1F
100
AcDbEntity
  8
0
  6
Continuous
 62
     7
100
AcDbLine
 10
193.9652047002518
 20
109.4138620715676
 30
0.0
 11
192.9652047002517
 21
108.4138620715677
 31
0.0
  0
LINE
  5
14B
330
1F
100
AcDbEntity
  8
0
  6
Continuous
 62
     7
100
AcDbLine
 10
193.965204700248
 20
140.4138620715678
 30
0.0
 11
193.9652047002518
 21
109.4138620715676
 31
0.0
  0
LINE
  5
14C
330
1F
100
AcDbEntity
  8
0
  6
Continuous
 62
     7
100
AcDbLine
 10
192.9652047002479
 20
141.4138620715678
 30
0.0
 11
193.965204700248
 21
140.4138620715678
 31
0.0
  0
LINE
  5
14D
330
1F
100
AcDbEntity
  8
0
  6
Continuous
 62
     7
100
AcDbLine
 10
192.9652047002476
 20
144.9138620715678
 30
0.0
 11
192.9652047002479
 21
141.4138620715678
 31
0.0
  0
LINE
  5
14E
330
1F
100
AcDbEntity
  8
0
  6
Continuous
 62
     7
100
AcDbLine
 10
192.9652047002526
 20
100.3699809897837
 30
0.0
 11
192.9652047005669
 21
98.66386207188181
 31
0.0
  0
LINE
  5
14F
330
1F
100
AcDbEntity
  8
0
  6
Continuous
 62
     7
100
AcDbLine
 10
193.6652046999387
 20
97.8638620718819
 30
0.0
 11
193.6652047002528
 21
97.9638620715678
 31
0.0
  0
LINE
  5
150
330
1F
100
AcDbEntity
  8
0
  6
Continuous
 62
     7
100
AcDbLine
 10
193.6652046999394
 20
92.8638620718819
 30
0.0
 11
193.6652047002534
 21
92.9638620715678
 31
0.0
  0
LINE
  5
151
330
1F
100
AcDbEntity
  8
0
  6
Continuous
 62
     7
100
AcDbLine
 10
192.9642047002549
 20
80.01386207156774
 30
0.0
 11
192.9652047002552
 21
77.41386207156775
 31
0.0
  0
LINE
  5
152
330
1F
100
AcDbEntity
  8
0
  6
Continuous
 62
     7
100
AcDbLine
 10
192.9652047002552
 20
77.41386207156775
 30
0.0
 11
192.9652047002552
 21
77.40386207156776
 31
0.0
  0
LINE
  5
153
330
1F
100
AcDbEntity
  8
0
  6
Continuous
 62
     7
100
AcDbLine
 10
193.6652046999394
 20
92.8638620718819
 30
0.0
 11
192.9652047002536
 21
92.16386207156775
 31
0.0
  0
LINE
  5
154
330
1F
100
AcDbEntity
  8
0
  6
Continuous
 62
     7
100
AcDbLine
 10
193.6652046999387
 20
97.8638620718819
 30
0.0
 11
192.9652047002529
 21
97.1638620715677
 31
0.0
  0
LINE
  5
155
330
1F
100
AcDbEntity
  8
0
  6
Continuous
 62
     7
100
AcDbLine
 10
192.9652047002538
 20
89.66386207156775
 30
0.0
 11
192.9642047002541
 21
87.81386207156775
 31
0.0
  0
LINE
  5
156
330
1F
100
AcDbEntity
  8
0
  6
Continuous
 62
     7
100
AcDbLine
 10
192.9642047002541
 20
87.81386207156775
 30
0.0
 11
192.9642047002549
 21
80.01386207156774
 31
0.0
  0
LINE
  5
157
330
1F
100
AcDbEntity
  8
0
  6
Continuous
 62
     7
100
AcDbLine
 10
233.4652047002472
 20
147.4138620715724
 30
0.0
 11
229.9652047002472
 21
147.413862071572
 31
0.0
  0
LINE
  5
158
330
1F
100
AcDbEntity
  8
0
  6
Continuous
 62
     7
100
AcDbLine
 10
229.9652047002472
 20
147.413862071572
 30
0.0
 11
198.9652047002472
 21
147.4138620715684
 31
0.0
  0
LINE
  5
159
330
1F
100
AcDbEntity
  8
0
  6
Continuous
 62
     7
100
AcDbLine
 10
235.9652047002479
 20
141.4138620715727
 30
0.0
 11
235.9652047002476
 21
144.9138620715727
 31
0.0
  0
LINE
  5
15A
330
1F
100
AcDbEntity
  8
0
  6
Continuous
 62
     7
100
AcDbLine
 10
234.9652047002516
 20
109.4138620715726
 30
0.0
 11
234.9652047002481
 21
140.4138620715725
 31
0.0
  0
LINE
  5
15B
330
1F
100
AcDbEntity
  8
0
  6
Continuous
 62
     7
100
AcDbLine
 10
235.9652047002527
 20
100.3699809897887
 30
0.0
 11
235.9652047002518
 21
108.4138620715726
 31
0.0
  0
LINE
  5
15C
330
1F
100
AcDbEntity
  8
0
  6
Continuous
 62
     7
100
AcDbLine
 10
235.9652047002531
 20
96.16386207157261
 30
0.0
 11
235.9652046999387
 21
97.1638620712585
 31
0.0
  0
LINE
  5
15D
330
1F
100
AcDbEntity
  8
0
  6
Continuous
 62
     7
100
AcDbLine
 10
235.9652046999387
 20
98.6638620718868
 30
0.0
 11
235.9652047002527
 21
100.3699809897887
 31
0.0
  0
LINE
  5
15E
330
1F
100
AcDbEntity
  8
0
  6
Continuous
 62
     7
100
AcDbLine
 10
235.9652047002534
 20
93.66386207157261
 30
0.0
 11
235.9652046999391
 21
94.6638620712586
 31
0.0
  0
LINE
  5
15F
330
1F
100
AcDbEntity
  8
0
  6
Continuous
 62
     7
100
AcDbLine
 10
229.9652047002533
 20
94.6638620712578
 30
0.0
 11
235.9652046999391
 21
94.6638620712586
 31
0.0
  0
LINE
  5
160
330
1F
100
AcDbEntity
  8
0
  6
Continuous
 62
     7
100
AcDbLine
 10
235.2652047005673
 20
95.4638620712584
 30
0.0
 11
235.2652047002531
 21
95.3638620715725
 31
0.0
  0
LINE
  5
161
330
1F
100
AcDbEntity
  8
0
  6
Continuous
 62
     7
100
AcDbLine
 10
229.9652047002531
 20
95.4638620715719
 30
0.0
 11
235.2652047005673
 21
95.4638620712584
 31
0.0
  0
LINE
  5
162
330
1F
100
AcDbEntity
  8
0
  6
Continuous
 62
     7
100
AcDbLine
 10
235.2652047002531
 20
95.3638620715725
 30
0.0
 11
229.9652047002531
 21
95.363862071886
 31
0.0
  0
LINE
  5
163
330
1F
100
AcDbEntity
  8
0
  6
Continuous
 62
     7
100
AcDbLine
 10
235.2652047002531
 20
95.3638620715725
 30
0.0
 11
235.9652046999391
 21
94.6638620712586
 31
0.0
  0
LINE
  5
164
330
1F
100
AcDbEntity
  8
0
  6
Continuous
 62
     7
100
AcDbLine
 10
235.9652047002534
 20
93.66386207157261
 30
0.0
 11
229.9652047002534
 21
93.663862071886
 31
0.0
  0
LINE
  5
165
330
1F
100
AcDbEntity
  8
0
  6
Continuous
 62
     7
100
AcDbLine
 10
235.9652047002531
 20
96.16386207157261
 30
0.0
 11
229.9652047002531
 21
96.163862071886
 31
0.0
  0
LINE
  5
166
330
1F
100
AcDbEntity
  8
0
  6
Continuous
 62
     7
100
AcDbLine
 10
229.9652047002529
 20
97.1638620712578
 30
0.0
 11
235.9652046999387
 21
97.1638620712585
 31
0.0
  0
LINE
  5
167
330
1F
100
AcDbEntity
  8
0
  6
Continuous
 62
     7
100
AcDbLine
 10
235.265204700567
 20
97.9638620712584
 30
0.0
 11
235.2652047002529
 21
97.8638620715725
 31
0.0
  0
LINE
  5
168
330
1F
100
AcDbEntity
  8
0
  6
Continuous
 62
     7
100
AcDbLine
 10
235.2652047002529
 20
97.8638620715725
 30
0.0
 11
229.9652047002529
 21
97.863862071886
 31
0.0
  0
LINE
  5
169
330
1F
100
AcDbEntity
  8
0
  6
Continuous
 62
     7
100
AcDbLine
 10
235.9652046999387
 20
98.6638620718868
 30
0.0
 11
229.9652047002527
 21
98.663862071886
 31
0.0
  0
LINE
  5
16A
330
1F
100
AcDbEntity
  8
0
  6
Continuous
 62
     7
100
AcDbLine
 10
229.9652047002529
 20
97.9638620715719
 30
0.0
 11
235.265204700567
 21
97.9638620712584
 31
0.0
  0
LINE
  5
16B
330
1F
100
AcDbEntity
  8
0
  6
Continuous
 62
     7
100
AcDbLine
 10
212.9652047002528
 20
98.66386207157011
 30
0.0
 11
198.9652047002528
 21
98.6638620718825
 31
0.0
  0
LINE
  5
16C
330
1F
100
AcDbEntity
  8
0
  6
Continuous
 62
     7
100
AcDbLine
 10
212.9652047002529
 20
97.96386207157
 30
0.0
 11
198.9652047002529
 21
97.9638620715684
 31
0.0
  0
LINE
  5
16D
330
1F
100
AcDbEntity
  8
0
  6
Continuous
 62
     7
100
AcDbLine
 10
212.965204700253
 20
96.16386207157011
 30
0.0
 11
198.965204700253
 21
96.1638620718826
 31
0.0
  0
LINE
  5
16E
330
1F
100
AcDbEntity
  8
0
  6
Continuous
 62
     7
100
AcDbLine
 10
212.9652047002531
 20
95.46386207157
 30
0.0
 11
198.9652047002531
 21
95.4638620712544
 31
0.0
  0
LINE
  5
16F
330
1F
100
AcDbEntity
  8
0
  6
Continuous
 62
     7
100
AcDbLine
 10
212.9652047002531
 20
95.36386207157
 30
0.0
 11
212.9652047002531
 21
95.46386207157
 31
0.0
  0
LINE
  5
170
330
1F
100
AcDbEntity
  8
0
  6
Continuous
 62
     7
100
AcDbLine
 10
212.9652047002533
 20
94.66386207157011
 30
0.0
 11
212.9652047002531
 21
95.36386207157
 31
0.0
  0
LINE
  5
171
330
1F
100
AcDbEntity
  8
0
  6
Continuous
 62
     7
100
AcDbLine
 10
212.9652047002531
 20
95.46386207157
 30
0.0
 11
212.965204700253
 21
96.16386207157011
 31
0.0
  0
LINE
  5
172
330
1F
100
AcDbEntity
  8
0
  6
Continuous
 62
     7
100
AcDbLine
 10
198.9652047002533
 20
94.6638620712543
 30
0.0
 11
212.9652047002533
 21
94.66386207157011
 31
0.0
  0
LINE
  5
173
330
1F
100
AcDbEntity
  8
0
  6
Continuous
 62
     7
100
AcDbLine
 10
198.9652047002531
 20
95.36386207188251
 30
0.0
 11
212.9652047002531
 21
95.36386207157
 31
0.0
  0
LINE
  5
174
330
1F
100
AcDbEntity
  8
0
  6
Continuous
 62
     7
100
AcDbLine
 10
212.9652047002529
 20
97.86386207157
 30
0.0
 11
212.9652047002529
 21
97.96386207157
 31
0.0
  0
LINE
  5
175
330
1F
100
AcDbEntity
  8
0
  6
Continuous
 62
     7
100
AcDbLine
 10
212.9652047002529
 20
97.16386207157011
 30
0.0
 11
212.9652047002529
 21
97.86386207157
 31
0.0
  0
LINE
  5
176
330
1F
100
AcDbEntity
  8
0
  6
Continuous
 62
     7
100
AcDbLine
 10
212.9652047002529
 20
97.96386207157
 30
0.0
 11
212.9652047002528
 21
98.66386207157011
 31
0.0
  0
LINE
  5
177
330
1F
100
AcDbEntity
  8
0
  6
Continuous
 62
     7
100
AcDbLine
 10
198.9652047002529
 20
97.1638620712543
 30
0.0
 11
212.9652047002529
 21
97.16386207157011
 31
0.0
  0
LINE
  5
178
330
1F
100
AcDbEntity
  8
0
  6
Continuous
 62
     7
100
AcDbLine
 10
198.9652047002529
 20
97.8638620715684
 30
0.0
 11
212.9652047002529
 21
97.86386207157
 31
0.0
  0
LINE
  5
179
330
1F
100
AcDbEntity
  8
0
  6
Continuous
 62
     7
100
AcDbLine
 10
215.9652047002529
 20
97.9638620715703
 30
0.0
 11
229.9652047002529
 21
97.9638620715719
 31
0.0
  0
LINE
  5
17A
330
1F
100
AcDbEntity
  8
0
  6
Continuous
 62
     7
100
AcDbLine
 10
215.9652047002529
 20
97.9638620715703
 30
0.0
 11
215.9652047002529
 21
97.86386207157041
 31
0.0
  0
LINE
  5
17B
330
1F
100
AcDbEntity
  8
0
  6
Continuous
 62
     7
100
AcDbLine
 10
215.9652047002529
 20
97.86386207157041
 30
0.0
 11
215.9652047002529
 21
97.1638620715703
 31
0.0
  0
LINE
  5
17C
330
1F
100
AcDbEntity
  8
0
  6
Continuous
 62
     7
100
AcDbLine
 10
215.9652047002528
 20
98.6638620715703
 30
0.0
 11
215.9652047002529
 21
97.9638620715703
 31
0.0
  0
LINE
  5
17D
330
1F
100
AcDbEntity
  8
0
  6
Continuous
 62
     7
100
AcDbLine
 10
215.9652047002531
 20
95.4638620715703
 30
0.0
 11
229.9652047002531
 21
95.4638620715719
 31
0.0
  0
LINE
  5
17E
330
1F
100
AcDbEntity
  8
0
  6
Continuous
 62
     7
100
AcDbLine
 10
215.9652047002531
 20
95.4638620715703
 30
0.0
 11
215.9652047002531
 21
95.36386207157041
 31
0.0
  0
LINE
  5
17F
330
1F
100
AcDbEntity
  8
0
  6
Continuous
 62
     7
100
AcDbLine
 10
215.9652047002531
 20
95.36386207157041
 30
0.0
 11
215.9652047002533
 21
94.6638620715703
 31
0.0
  0
LINE
  5
180
330
1F
100
AcDbEntity
  8
0
  6
Continuous
 62
     7
100
AcDbLine
 10
215.965204700253
 20
96.1638620715703
 30
0.0
 11
215.9652047002531
 21
95.4638620715703
 31
0.0
  0
LINE
  5
181
330
1F
100
AcDbEntity
  8
0
  6
Continuous
 62
     7
100
AcDbLine
 10
229.9652047002534
 20
93.663862071886
 30
0.0
 11
215.9652047002534
 21
93.6638620715703
 31
0.0
  0
LINE
  5
182
330
1F
100
AcDbEntity
  8
0
  6
Continuous
 62
     7
100
AcDbLine
 10
215.9652047002533
 20
94.6638620715703
 30
0.0
 11
229.9652047002533
 21
94.6638620712578
 31
0.0
  0
LINE
  5
183
330
1F
100
AcDbEntity
  8
0
  6
Continuous
 62
     7
100
AcDbLine
 10
229.9652047002531
 20
96.163862071886
 30
0.0
 11
215.965204700253
 21
96.1638620715703
 31
0.0
  0
LINE
  5
184
330
1F
100
AcDbEntity
  8
0
  6
Continuous
 62
     7
100
AcDbLine
 10
229.9652047002531
 20
95.363862071886
 30
0.0
 11
215.9652047002531
 21
95.36386207157041
 31
0.0
  0
LINE
  5
185
330
1F
100
AcDbEntity
  8
0
  6
Continuous
 62
     7
100
AcDbLine
 10
215.9652047002529
 20
97.1638620715703
 30
0.0
 11
229.9652047002529
 21
97.1638620712578
 31
0.0
  0
LINE
  5
186
330
1F
100
AcDbEntity
  8
0
  6
Continuous
 62
     7
100
AcDbLine
 10
229.9652047002527
 20
98.663862071886
 30
0.0
 11
215.9652047002528
 21
98.6638620715703
 31
0.0
  0
LINE
  5
187
330
1F
100
AcDbEntity
  8
0
  6
Continuous
 62
     7
100
AcDbLine
 10
229.9652047002529
 20
97.863862071886
 30
0.0
 11
215.9652047002529
 21
97.86386207157041
 31
0.0
  0
LINE
  5
188
330
1F
100
AcDbEntity
  8
0
  6
Continuous
 62
     7
100
AcDbLine
 10
235.2652047005673
 20
95.4638620712584
 30
0.0
 11
235.9652047002531
 21
96.16386207157261
 31
0.0
  0
LINE
  5
189
330
1F
100
AcDbEntity
  8
0
  6
Continuous
 62
     7
100
AcDbLine
 10
235.9652047002518
 20
108.4138620715726
 30
0.0
 11
234.9652047002516
 21
109.4138620715726
 31
0.0
  0
LINE
  5
18A
330
1F
100
AcDbEntity
  8
0
  6
Continuous
 62
     7
100
AcDbLine
 10
235.2652047002529
 20
97.8638620715725
 30
0.0
 11
235.9652046999387
 21
97.1638620712585
 31
0.0
  0
LINE
  5
18B
330
1F
100
AcDbEntity
  8
0
  6
Continuous
 62
     7
100
AcDbLine
 10
234.9652047002481
 20
140.4138620715725
 30
0.0
 11
235.9652047002479
 21
141.4138620715727
 31
0.0
  0
LINE
  5
18C
330
1F
100
AcDbEntity
  8
0
  6
Continuous
 62
     7
100
AcDbLine
 10
235.265204700567
 20
97.9638620712584
 30
0.0
 11
235.9652046999387
 21
98.6638620718868
 31
0.0
  0
LINE
  5
18D
330
1F
100
AcDbEntity
  8
0
  6
Continuous
 62
     7
100
AcDbLine
 10
125.4928189347133
 20
108.4138620724124
 30
0.0
 11
67.43359266353758
 21
108.4138620724124
 31
0.0
  0
LINE
  5
18E
330
1F
100
AcDbEntity
  8
0
  6
Continuous
 62
     7
100
AcDbLine
 10
126.9632054657088
 20
92.16286215580134
 30
0.0
 11
65.96320588246056
 21
92.16286215511575
 31
0.0
  0
LINE
  5
18F
330
1F
100
AcDbEntity
  8
0
  6
Continuous
 62
     7
100
AcDbLine
 10
126.9632057991255
 20
97.8638620724123
 30
0.0
 11
65.96320579912549
 21
97.8638620724123
 31
0.0
  0
LINE
  5
190
330
1F
100
AcDbEntity
  8
0
  6
Continuous
 62
     7
100
AcDbLine
 10
65.96320579912549
 20
97.1638620724124
 30
0.0
 11
126.9632057991255
 21
97.1638620724124
 31
0.0
  0
LINE
  5
191
330
1F
100
AcDbEntity
  8
0
  6
Continuous
 62
     7
100
AcDbLine
 10
126.9632057991255
 20
96.1638620724124
 30
0.0
 11
65.96320579912549
 21
96.1638620724124
 31
0.0
  0
LINE
  5
192
330
1F
100
AcDbEntity
  8
0
  6
Continuous
 62
     7
100
AcDbLine
 10
65.96320579912549
 20
97.9638620724123
 30
0.0
 11
126.9632057991255
 21
97.9638620724123
 31
0.0
  0
LINE
  5
193
330
1F
100
AcDbEntity
  8
0
  6
Continuous
 62
     7
100
AcDbLine
 10
65.96320579912549
 20
95.4638620724123
 30
0.0
 11
126.9632057991255
 21
95.4638620724123
 31
0.0
  0
LINE
  5
194
330
1F
100
AcDbEntity
  8
0
  6
Continuous
 62
     7
100
AcDbLine
 10
59.96320579912549
 20
91.16436207272584
 30
0.0
 11
65.96320579912026
 21
91.16286198970555
 31
0.0
  0
LINE
  5
195
330
1F
100
AcDbEntity
  8
0
  6
Continuous
 62
     7
100
AcDbLine
 10
65.96320579912026
 20
91.16286198970555
 30
0.0
 11
126.9642057991255
 21
91.16386207241244
 31
0.0
  0
LINE
  5
196
330
1F
100
AcDbEntity
  8
0
  6
Continuous
 62
     7
100
AcDbLine
 10
126.9632057991255
 20
98.6638620724124
 30
0.0
 11
65.96320579912549
 21
98.6638620724124
 31
0.0
  0
LINE
  5
197
330
1F
100
AcDbEntity
  8
0
  6
Continuous
 62
     7
100
AcDbLine
 10
60.66320579912548
 20
92.86386207272581
 30
0.0
 11
59.96270579944041
 21
92.16336207209766
 31
0.0
  0
LINE
  5
198
330
1F
100
AcDbEntity
  8
0
  6
Continuous
 62
     7
100
AcDbLine
 10
126.9632057991255
 20
92.8638620724123
 30
0.0
 11
65.96320579912549
 21
92.8638620724123
 31
0.0
  0
LINE
  5
199
330
1F
100
AcDbEntity
  8
0
  6
Continuous
 62
     7
100
AcDbLine
 10
65.96320579912549
 20
92.9638620724123
 30
0.0
 11
126.9632057991255
 21
92.9638620724123
 31
0.0
  0
LINE
  5
19A
330
1F
100
AcDbEntity
  8
0
  6
Continuous
 62
     7
100
AcDbLine
 10
126.9632057991255
 20
93.6638620724124
 30
0.0
 11
65.96320579912549
 21
93.6638620724124
 31
0.0
  0
LINE
  5
19B
330
1F
100
AcDbEntity
  8
0
  6
Continuous
 62
     7
100
AcDbLine
 10
65.96320579912549
 20
94.6638620724124
 30
0.0
 11
126.9632057991255
 21
94.6638620724124
 31
0.0
  0
LINE
  5
19C
330
1F
100
AcDbEntity
  8
0
  6
Continuous
 62
     7
100
AcDbLine
 10
126.9632057991255
 20
95.3638620724123
 30
0.0
 11
65.96320579912549
 21
95.3638620724123
 31
0.0
  0
LINE
  5
19D
330
1F
100
AcDbEntity
  8
0
  6
Continuous
 62
     7
100
AcDbLine
 10
126.9632057991255
 20
90.46386207241234
 30
0.0
 11
132.2632057991254
 21
90.46386207209765
 31
0.0
  0
LINE
  5
19E
330
1F
100
AcDbEntity
  8
0
  6
Continuous
 62
     7
100
AcDbLine
 10
60.66320579881136
 20
90.46386207209765
 30
0.0
 11
65.96320579912549
 21
90.46386207241234
 31
0.0
  0
LINE
  5
19F
330
1F
100
AcDbEntity
  8
0
  6
Continuous
 62
     7
100
AcDbLine
 10
65.96320579912549
 20
90.46386207241234
 30
0.0
 11
126.9632057991255
 21
90.46386207241234
 31
0.0
  0
LINE
  5
1A0
330
1F
100
AcDbEntity
  8
0
  6
Continuous
 62
     7
100
AcDbLine
 10
60.66320579881136
 20
90.46386207209765
 30
0.0
 11
60.66320579912548
 21
90.36386207241175
 31
0.0
  0
LINE
  5
1A1
330
1F
100
AcDbEntity
  8
0
  6
Continuous
 62
     7
100
AcDbLine
 10
132.2632057991254
 20
90.46386207209765
 30
0.0
 11
132.2632057994396
 21
90.36386207272584
 31
0.0
  0
LINE
  5
1A2
330
1F
100
AcDbEntity
  8
0
  6
Continuous
 62
     7
100
AcDbLine
 10
65.96220579912546
 20
89.66386207241244
 30
0.0
 11
59.96320579912549
 21
89.66336207209766
 31
0.0
  0
LINE
  5
1A3
330
1F
100
AcDbEntity
  8
0
  6
Continuous
 62
     7
100
AcDbLine
 10
126.9642057991255
 20
89.66386207241244
 30
0.0
 11
65.96220579912546
 21
89.66386207241244
 31
0.0
  0
LINE
  5
1A4
330
1F
100
AcDbEntity
  8
0
  6
Continuous
 62
     7
100
AcDbLine
 10
132.9632057991255
 20
89.66336207209766
 30
0.0
 11
126.9642057991255
 21
89.66386207241244
 31
0.0
  0
LINE
  5
1A5
330
1F
100
AcDbEntity
  8
0
  6
Continuous
 62
     7
100
AcDbLine
 10
132.2632057994396
 20
90.36386207272584
 30
0.0
 11
126.9632057991255
 21
90.36386207241235
 31
0.0
  0
LINE
  5
1A6
330
1F
100
AcDbEntity
  8
0
  6
Continuous
 62
     7
100
AcDbLine
 10
132.2632057994396
 20
90.36386207272584
 30
0.0
 11
132.9632057991255
 21
89.66336207209766
 31
0.0
  0
LINE
  5
1A7
330
1F
100
AcDbEntity
  8
0
  6
Continuous
 62
     7
100
AcDbLine
 10
65.96320579912549
 20
90.36386207241235
 30
0.0
 11
60.66320579912548
 21
90.36386207241175
 31
0.0
  0
LINE
  5
1A8
330
1F
100
AcDbEntity
  8
0
  6
Continuous
 62
     7
100
AcDbLine
 10
126.9632057991255
 20
90.36386207241235
 30
0.0
 11
65.96320579912549
 21
90.36386207241235
 31
0.0
  0
LINE
  5
1A9
330
1F
100
AcDbEntity
  8
0
  6
Continuous
 62
     7
100
AcDbLine
 10
60.66320579881136
 20
90.46386207209765
 30
0.0
 11
59.96320579912549
 21
91.16436207272584
 31
0.0
  0
LINE
  5
1AA
330
1F
100
AcDbEntity
  8
0
  6
Continuous
 62
     7
100
AcDbLine
 10
60.66320579912548
 20
90.36386207241175
 30
0.0
 11
59.96320579912549
 21
89.66336207209766
 31
0.0
  0
LINE
  5
1AB
330
1F
100
AcDbEntity
  8
0
  6
Continuous
 62
     7
100
AcDbLine
 10
64.24480758440006
 20
109.4138620724124
 30
0.0
 11
128.6816040138509
 21
109.4138620724124
 31
0.0
  0
LINE
  5
1AC
330
1F
100
AcDbEntity
  8
0
  6
Continuous
 62
     7
100
AcDbLine
 10
122.3787704120721
 20
147.4138620724117
 30
0.0
 11
118.8207759239607
 21
147.4138620724122
 31
0.0
  0
LINE
  5
1AD
330
1F
100
AcDbEntity
  8
0
  6
Continuous
 62
     7
100
AcDbLine
 10
123.0149373471843
 20
140.4138620724123
 30
0.0
 11
128.6816040138509
 21
109.4138620724124
 31
0.0
  0
LINE
  5
1AE
330
1F
100
AcDbEntity
  8
0
  6
Continuous
 62
     7
100
AcDbLine
 10
126.9642057991255
 20
77.41386207241244
 30
0.0
 11
65.96220579912546
 21
77.41386207241244
 31
0.0
  0
LINE
  5
1AF
330
1F
100
AcDbEntity
  8
0
  6
Continuous
 62
     7
100
AcDbLine
 10
132.9632057991255
 20
100.3699809906278
 30
0.0
 11
132.9632057991255
 21
98.6638620724101
 31
0.0
  0
LINE
  5
1B0
330
1F
100
AcDbEntity
  8
0
  6
Continuous
 62
     7
100
AcDbLine
 10
132.9632057991255
 20
97.1638620720976
 30
0.0
 11
132.9632057991255
 21
98.6638620724101
 31
0.0
  0
LINE
  5
1B1
330
1F
100
AcDbEntity
  8
0
  6
Continuous
 62
     7
100
AcDbLine
 10
132.2632057994396
 20
97.86386207272581
 30
0.0
 11
126.9632057991255
 21
97.8638620724123
 31
0.0
  0
LINE
  5
1B2
330
1F
100
AcDbEntity
  8
0
  6
Continuous
 62
     7
100
AcDbLine
 10
132.9632057991255
 20
97.1638620720976
 30
0.0
 11
132.9632057991255
 21
96.1638620724101
 31
0.0
  0
LINE
  5
1B3
330
1F
100
AcDbEntity
  8
0
  6
Continuous
 62
     7
100
AcDbLine
 10
132.2632057994396
 20
95.36386207272581
 30
0.0
 11
126.9632057991255
 21
95.3638620724123
 31
0.0
  0
LINE
  5
1B4
330
1F
100
AcDbEntity
  8
0
  6
Continuous
 62
     7
100
AcDbLine
 10
132.9632057991255
 20
94.6638620720976
 30
0.0
 11
132.9632057991255
 21
93.6638620724101
 31
0.0
  0
LINE
  5
1B5
330
1F
100
AcDbEntity
  8
0
  6
Continuous
 62
     7
100
AcDbLine
 10
132.2632057994396
 20
92.86386207272581
 30
0.0
 11
126.9632057991255
 21
92.8638620724123
 31
0.0
  0
LINE
  5
1B6
330
1F
100
AcDbEntity
  8
0
  6
Continuous
 62
     7
100
AcDbLine
 10
132.9632057991255
 20
92.16336207209766
 30
0.0
 11
132.9642057991255
 21
91.16386207241014
 31
0.0
  0
LINE
  5
1B7
330
1F
100
AcDbEntity
  8
0
  6
Continuous
 62
     2
100
AcDbLine
 10
126.9642056324727
 20
77.40386207241245
 30
0.0
 11
126.9642057991255
 21
77.41386207241244
 31
0.0
  0
LINE
  5
1B8
330
1F
100
AcDbEntity
  8
0
  6
Continuous
 62
     7
100
AcDbLine
 10
132.9632057991255
 20
89.66336207209766
 30
0.0
 11
132.9632057991255
 21
77.40386207241174
 31
0.0
  0
LINE
  5
1B9
330
1F
100
AcDbEntity
  8
0
  6
Continuous
 62
     7
100
AcDbLine
 10
132.9632057991255
 20
89.66336207209766
 30
0.0
 11
132.9642057991255
 21
91.16386207241014
 31
0.0
  0
LINE
  5
1BA
330
1F
100
AcDbEntity
  8
0
  6
Continuous
 62
     7
100
AcDbLine
 10
132.2632057991254
 20
90.46386207209765
 30
0.0
 11
132.9642057991255
 21
91.16386207241014
 31
0.0
  0
LINE
  5
1BB
330
1F
100
AcDbEntity
  8
0
  6
Continuous
 62
     7
100
AcDbLine
 10
126.9642057991255
 20
91.16386207241244
 30
0.0
 11
132.9642057991255
 21
91.16386207241014
 31
0.0
  0
LINE
  5
1BC
330
1F
100
AcDbEntity
  8
0
  6
Continuous
 62
     7
100
AcDbLine
 10
132.9632057991255
 20
92.16336207209766
 30
0.0
 11
126.9632054657088
 21
92.16286215580134
 31
0.0
  0
LINE
  5
1BD
330
1F
100
AcDbEntity
  8
0
  6
Continuous
 62
     7
100
AcDbLine
 10
132.2632057994396
 20
92.86386207272581
 30
0.0
 11
132.9632057991255
 21
92.16336207209766
 31
0.0
  0
LINE
  5
1BE
330
1F
100
AcDbEntity
  8
0
  6
Continuous
 62
     7
100
AcDbLine
 10
132.2632057991254
 20
92.9638620720977
 30
0.0
 11
132.2632057994396
 21
92.86386207272581
 31
0.0
  0
LINE
  5
1BF
330
1F
100
AcDbEntity
  8
0
  6
Continuous
 62
     7
100
AcDbLine
 10
126.9632057991255
 20
92.9638620724123
 30
0.0
 11
132.2632057991254
 21
92.9638620720977
 31
0.0
  0
LINE
  5
1C0
330
1F
100
AcDbEntity
  8
0
  6
Continuous
 62
     7
100
AcDbLine
 10
132.9632057991255
 20
92.16336207209766
 30
0.0
 11
132.9632057991255
 21
93.6638620724101
 31
0.0
  0
LINE
  5
1C1
330
1F
100
AcDbEntity
  8
0
  6
Continuous
 62
     7
100
AcDbLine
 10
132.2632057991254
 20
92.9638620720977
 30
0.0
 11
132.9632057991255
 21
93.6638620724101
 31
0.0
  0
LINE
  5
1C2
330
1F
100
AcDbEntity
  8
0
  6
Continuous
 62
     7
100
AcDbLine
 10
132.9632057991255
 20
93.6638620724101
 30
0.0
 11
126.9632057991255
 21
93.6638620724124
 31
0.0
  0
LINE
  5
1C3
330
1F
100
AcDbEntity
  8
0
  6
Continuous
 62
     7
100
AcDbLine
 10
126.9632057991255
 20
94.6638620724124
 30
0.0
 11
132.9632057991255
 21
94.6638620720976
 31
0.0
  0
LINE
  5
1C4
330
1F
100
AcDbEntity
  8
0
  6
Continuous
 62
     7
100
AcDbLine
 10
132.2632057994396
 20
95.36386207272581
 30
0.0
 11
132.9632057991255
 21
94.6638620720976
 31
0.0
  0
LINE
  5
1C5
330
1F
100
AcDbEntity
  8
0
  6
Continuous
 62
     7
100
AcDbLine
 10
132.2632057991254
 20
95.4638620720977
 30
0.0
 11
132.2632057994396
 21
95.36386207272581
 31
0.0
  0
LINE
  5
1C6
330
1F
100
AcDbEntity
  8
0
  6
Continuous
 62
     7
100
AcDbLine
 10
126.9632057991255
 20
95.4638620724123
 30
0.0
 11
132.2632057991254
 21
95.4638620720977
 31
0.0
  0
LINE
  5
1C7
330
1F
100
AcDbEntity
  8
0
  6
Continuous
 62
     7
100
AcDbLine
 10
132.9632057991255
 20
94.6638620720976
 30
0.0
 11
132.9632057991255
 21
96.1638620724101
 31
0.0
  0
LINE
  5
1C8
330
1F
100
AcDbEntity
  8
0
  6
Continuous
 62
     7
100
AcDbLine
 10
132.2632057991254
 20
95.4638620720977
 30
0.0
 11
132.9632057991255
 21
96.1638620724101
 31
0.0
  0
LINE
  5
1C9
330
1F
100
AcDbEntity
  8
0
  6
Continuous
 62
     7
100
AcDbLine
 10
132.9632057991255
 20
96.1638620724101
 30
0.0
 11
126.9632057991255
 21
96.1638620724124
 31
0.0
  0
LINE
  5
1CA
330
1F
100
AcDbEntity
  8
0
  6
Continuous
 62
     7
100
AcDbLine
 10
126.9632057991255
 20
97.1638620724124
 30
0.0
 11
132.9632057991255
 21
97.1638620720976
 31
0.0
  0
LINE
  5
1CB
330
1F
100
AcDbEntity
  8
0
  6
Continuous
 62
     7
100
AcDbLine
 10
132.2632057994396
 20
97.86386207272581
 30
0.0
 11
132.9632057991255
 21
97.1638620720976
 31
0.0
  0
LINE
  5
1CC
330
1F
100
AcDbEntity
  8
0
  6
Continuous
 62
     7
100
AcDbLine
 10
132.2632057991254
 20
97.9638620720977
 30
0.0
 11
132.2632057994396
 21
97.86386207272581
 31
0.0
  0
LINE
  5
1CD
330
1F
100
AcDbEntity
  8
0
  6
Continuous
 62
     7
100
AcDbLine
 10
126.9632057991255
 20
97.9638620724123
 30
0.0
 11
132.2632057991254
 21
97.9638620720977
 31
0.0
  0
LINE
  5
1CE
330
1F
100
AcDbEntity
  8
0
  6
Continuous
 62
     7
100
AcDbLine
 10
132.2632057991254
 20
97.9638620720977
 30
0.0
 11
132.9632057991255
 21
98.6638620724101
 31
0.0
  0
LINE
  5
1CF
330
1F
100
AcDbEntity
  8
0
  6
Continuous
 62
     7
100
AcDbLine
 10
132.9632057991255
 20
98.6638620724101
 30
0.0
 11
126.9632057991255
 21
98.6638620724124
 31
0.0
  0
LINE
  5
1D0
330
1F
100
AcDbEntity
  8
0
  6
Continuous
 62
     7
100
AcDbLine
 10
124.8380209896761
 20
145.363402500576
 30
0.0
 11
132.8654071853752
 21
101.4488780182218
 31
0.0
  0
LINE
  5
1D1
330
1F
100
AcDbEntity
  8
0
  6
Continuous
 62
     7
100
AcDbLine
 10
132.9632057991255
 20
77.40386207241174
 30
0.0
 11
126.9642056324727
 21
77.40386207241245
 31
0.0
  0
LINE
  5
1D2
330
1F
100
AcDbEntity
  8
0
  6
Continuous
 62
     7
100
AcDbLine
 10
73.46585072805368
 20
141.4138620724125
 30
0.0
 11
119.4605608701972
 21
141.4138620724125
 31
0.0
  0
LINE
  5
1D3
330
1F
100
AcDbEntity
  8
0
  6
Continuous
 62
     7
100
AcDbLine
 10
69.91147425106669
 20
140.4138620724123
 30
0.0
 11
123.0149373471843
 21
140.4138620724123
 31
0.0
  0
LINE
  5
1D4
330
1F
100
AcDbEntity
  8
0
  6
Continuous
 62
     7
100
AcDbLine
 10
126.9642056324727
 20
77.40386207241245
 30
0.0
 11
65.96220596577825
 21
77.40386207241245
 31
0.0
  0
LINE
  5
1D5
330
1F
100
AcDbEntity
  8
0
  6
Continuous
 62
     7
100
AcDbLine
 10
59.96320579912549
 20
77.40386207241174
 30
0.0
 11
65.96220596577825
 21
77.40386207241245
 31
0.0
  0
LINE
  5
1D6
330
1F
100
AcDbEntity
  8
0
  6
Continuous
 62
     7
100
AcDbLine
 10
74.10563567429028
 20
147.4138620724122
 30
0.0
 11
70.54764118617885
 21
147.4138620724117
 31
0.0
  0
LINE
  5
1D7
330
1F
100
AcDbEntity
  8
0
  6
Continuous
 62
     7
100
AcDbLine
 10
64.24480758440006
 20
109.4138620724124
 30
0.0
 11
69.91147425106669
 21
140.4138620724123
 31
0.0
  0
LINE
  5
1D8
330
1F
100
AcDbEntity
  8
0
  6
Continuous
 62
     2
100
AcDbLine
 10
65.96220596577825
 20
77.40386207241245
 30
0.0
 11
65.96220579912546
 21
77.41386207241244
 31
0.0
  0
LINE
  5
1D9
330
1F
100
AcDbEntity
  8
0
  6
Continuous
 62
     7
100
AcDbLine
 10
59.96320579943955
 20
97.1638620720976
 30
0.0
 11
65.96320579912549
 21
97.1638620724124
 31
0.0
  0
LINE
  5
1DA
330
1F
100
AcDbEntity
  8
0
  6
Continuous
 62
     7
100
AcDbLine
 10
60.66320579881136
 20
92.9638620720977
 30
0.0
 11
60.66320579912548
 21
92.86386207272581
 31
0.0
  0
LINE
  5
1DB
330
1F
100
AcDbEntity
  8
0
  6
Continuous
 62
     7
100
AcDbLine
 10
60.66320579881136
 20
95.4638620720977
 30
0.0
 11
60.66320579912548
 21
95.36386207272581
 31
0.0
  0
LINE
  5
1DC
330
1F
100
AcDbEntity
  8
0
  6
Continuous
 62
     7
100
AcDbLine
 10
65.96320579912549
 20
96.1638620724124
 30
0.0
 11
59.96320579912549
 21
96.1638620727259
 31
0.0
  0
LINE
  5
1DD
330
1F
100
AcDbEntity
  8
0
  6
Continuous
 62
     7
100
AcDbLine
 10
60.66320579881136
 20
95.4638620720977
 30
0.0
 11
65.96320579912549
 21
95.4638620724123
 31
0.0
  0
LINE
  5
1DE
330
1F
100
AcDbEntity
  8
0
  6
Continuous
 62
     7
100
AcDbLine
 10
65.96320579912549
 20
95.3638620724123
 30
0.0
 11
60.66320579912548
 21
95.36386207272581
 31
0.0
  0
LINE
  5
1DF
330
1F
100
AcDbEntity
  8
0
  6
Continuous
 62
     7
100
AcDbLine
 10
59.96320579943955
 20
94.6638620720976
 30
0.0
 11
65.96320579912549
 21
94.6638620724124
 31
0.0
  0
LINE
  5
1E0
330
1F
100
AcDbEntity
  8
0
  6
Continuous
 62
     7
100
AcDbLine
 10
65.96320579912549
 20
93.6638620724124
 30
0.0
 11
59.96320579912549
 21
93.6638620727259
 31
0.0
  0
LINE
  5
1E1
330
1F
100
AcDbEntity
  8
0
  6
Continuous
 62
     7
100
AcDbLine
 10
60.66320579881136
 20
92.9638620720977
 30
0.0
 11
65.96320579912549
 21
92.9638620724123
 31
0.0
  0
LINE
  5
1E2
330
1F
100
AcDbEntity
  8
0
  6
Continuous
 62
     7
100
AcDbLine
 10
65.96320579912549
 20
92.8638620724123
 30
0.0
 11
60.66320579912548
 21
92.86386207272581
 31
0.0
  0
LINE
  5
1E3
330
1F
100
AcDbEntity
  8
0
  6
Continuous
 62
     7
100
AcDbLine
 10
65.96320579912549
 20
97.8638620724123
 30
0.0
 11
60.66320579912548
 21
97.86386207272581
 31
0.0
  0
LINE
  5
1E4
330
1F
100
AcDbEntity
  8
0
  6
Continuous
 62
     7
100
AcDbLine
 10
60.66320579881136
 20
97.9638620720977
 30
0.0
 11
65.96320579912549
 21
97.9638620724123
 31
0.0
  0
LINE
  5
1E5
330
1F
100
AcDbEntity
  8
0
  6
Continuous
 62
     7
100
AcDbLine
 10
60.66320579881136
 20
97.9638620720977
 30
0.0
 11
60.66320579912548
 21
97.86386207272581
 31
0.0
  0
LINE
  5
1E6
330
1F
100
AcDbEntity
  8
0
  6
Continuous
 62
     7
100
AcDbLine
 10
60.66320579912548
 20
97.86386207272581
 30
0.0
 11
59.96320579943955
 21
97.1638620720976
 31
0.0
  0
LINE
  5
1E7
330
1F
100
AcDbEntity
  8
0
  6
Continuous
 62
     7
100
AcDbLine
 10
60.66320579881136
 20
97.9638620720977
 30
0.0
 11
59.96320579943955
 21
98.6638620727258
 31
0.0
  0
LINE
  5
1E8
330
1F
100
AcDbEntity
  8
0
  6
Continuous
 62
     7
100
AcDbLine
 10
60.66320579912548
 20
95.36386207272581
 30
0.0
 11
59.96320579943955
 21
94.6638620720976
 31
0.0
  0
LINE
  5
1E9
330
1F
100
AcDbEntity
  8
0
  6
Continuous
 62
     7
100
AcDbLine
 10
60.66320579881136
 20
92.9638620720977
 30
0.0
 11
59.96320579912549
 21
93.6638620727259
 31
0.0
  0
LINE
  5
1EA
330
1F
100
AcDbEntity
  8
0
  6
Continuous
 62
     7
100
AcDbLine
 10
59.96320579943955
 20
98.6638620727258
 30
0.0
 11
59.96320579912549
 21
100.3699809906278
 31
0.0
  0
LINE
  5
1EB
330
1F
100
AcDbEntity
  8
0
  6
Continuous
 62
     7
100
AcDbLine
 10
60.66320579881136
 20
95.4638620720977
 30
0.0
 11
59.96320579912549
 21
96.1638620727259
 31
0.0
  0
LINE
  5
1EC
330
1F
100
AcDbEntity
  8
0
  6
Continuous
 62
     7
100
AcDbLine
 10
65.96320588246056
 20
92.16286215511575
 30
0.0
 11
59.96270579944041
 21
92.16336207209766
 31
0.0
  0
LINE
  5
1ED
330
1F
100
AcDbEntity
  8
0
  6
Continuous
 62
     7
100
AcDbLine
 10
59.96320579912549
 20
91.16436207272584
 30
0.0
 11
59.96270579944041
 21
92.16336207209766
 31
0.0
  0
LINE
  5
1EE
330
1F
100
AcDbEntity
  8
0
  6
Continuous
 62
     7
100
AcDbLine
 10
59.96320579912549
 20
93.6638620727259
 30
0.0
 11
59.96270579944041
 21
92.16336207209766
 31
0.0
  0
LINE
  5
1EF
330
1F
100
AcDbEntity
  8
0
  6
Continuous
 62
     7
100
AcDbLine
 10
59.96320579912549
 20
93.6638620727259
 30
0.0
 11
59.96320579943955
 21
94.6638620720976
 31
0.0
  0
LINE
  5
1F0
330
1F
100
AcDbEntity
  8
0
  6
Continuous
 62
     7
100
AcDbLine
 10
59.96320579912549
 20
96.1638620727259
 30
0.0
 11
59.96320579943955
 21
94.6638620720976
 31
0.0
  0
LINE
  5
1F1
330
1F
100
AcDbEntity
  8
0
  6
Continuous
 62
     7
100
AcDbLine
 10
59.96320579912549
 20
96.1638620727259
 30
0.0
 11
59.96320579943955
 21
97.1638620720976
 31
0.0
  0
LINE
  5
1F2
330
1F
100
AcDbEntity
  8
0
  6
Continuous
 62
     7
100
AcDbLine
 10
59.96320579943955
 20
98.6638620727258
 30
0.0
 11
59.96320579943955
 21
97.1638620720976
 31
0.0
  0
LINE
  5
1F3
330
1F
100
AcDbEntity
  8
0
  6
Continuous
 62
     7
100
AcDbLine
 10
59.96320579912549
 20
77.40386207241174
 30
0.0
 11
59.96320579912549
 21
89.66336207209766
 31
0.0
  0
LINE
  5
1F4
330
1F
100
AcDbEntity
  8
0
  6
Continuous
 62
     7
100
AcDbLine
 10
59.96320579912549
 20
91.16436207272584
 30
0.0
 11
59.96320579912549
 21
89.66336207209766
 31
0.0
  0
LINE
  5
1F5
330
1F
100
AcDbEntity
  8
0
  6
Continuous
 62
     7
100
AcDbLine
 10
60.06100441287572
 20
101.4488780182218
 30
0.0
 11
68.08839060857474
 21
145.363402500576
 31
0.0
  0
LINE
  5
1F6
330
1F
100
AcDbEntity
  8
1
  6
DOT_CENTER
 62
     2
100
AcDbLine
 10
114.5032057991255
 20
83.91386207241315
 30
0.0
 11
105.9232057991255
 21
83.91386207241315
 31
0.0
  0
LINE
  5
1F7
330
1F
100
AcDbEntity
  8
1
  6
DOT_CENTER
 62
     2
100
AcDbLine
 10
110.2132057991255
 20
88.20386207241314
 30
0.0
 11
110.2132057991255
 21
79.62386207241305
 31
0.0
  0
LINE
  5
1F8
330
1F
100
AcDbEntity
  8
1
  6
DOT_CENTER
 62
     2
100
AcDbLine
 10
87.00320579912545
 20
83.91386207241244
 30
0.0
 11
78.42320579912547
 21
83.91386207241244
 31
0.0
  0
LINE
  5
1F9
330
1F
100
AcDbEntity
  8
1
  6
DOT_CENTER
 62
     2
100
AcDbLine
 10
82.71320579912549
 20
88.20386207241243
 30
0.0
 11
82.71320579912549
 21
79.62386207241245
 31
0.0
  0
LINE
  5
1FA
330
1F
100
AcDbEntity
  8
0
  6
Continuous
 62
     7
100
AcDbLine
 10
65.96320579912549
 20
98.6638620724124
 30
0.0
 11
59.96320579943955
 21
98.6638620727258
 31
0.0
  0
LINE
  5
1FB
330
1F
100
AcDbEntity
  8
0
  6
Continuous
 62
     7
100
AcDbLine
 10
74.10563567429028
 20
147.4138620724122
 30
0.0
 11
80.46320579912549
 21
147.4138620724122
 31
0.0
  0
LINE
  5
1FC
330
1F
100
AcDbEntity
  8
1
  6
Continuous
 62
     2
100
AcDbLine
 10
80.46320579912549
 20
147.4138620724122
 30
0.0
 11
80.46320579912549
 21
147.5138620724122
 31
0.0
  0
LINE
  5
1FD
330
1F
100
AcDbEntity
  8
0
  6
Continuous
 62
     7
100
AcDbLine
 10
80.46320579912549
 20
147.4138620724122
 30
0.0
 11
112.5
 21
147.4138620724122
 31
0.0
  0
LINE
  5
1FE
330
1F
100
AcDbEntity
  8
1
  6
Continuous
 62
     2
100
AcDbLine
 10
112.5
 20
147.4138620724122
 30
0.0
 11
112.5
 21
147.5138620724122
 31
0.0
  0
LINE
  5
1FF
330
1F
100
AcDbEntity
  8
0
  6
Continuous
 62
     7
100
AcDbLine
 10
112.5
 20
147.4138620724122
 30
0.0
 11
118.8207759239607
 21
147.4138620724122
 31
0.0
  0
ARC
  5
200
330
1F
100
AcDbEntity
  8
Sichtbare_Kanten_TC_020513_DIN_
  6
Continuous
 62
     7
100
AcDbCircle
 10
94.96320579912546
 20
123.2270830260493
 30
0.0
 40
0.375
100
AcDbArc
 50
180.0
 51
0.0
  0
ARC
  5
201
330
1F
100
AcDbEntity
  8
Sichtbare_Kanten_TC_020513_DIN_
  6
Continuous
 62
     7
100
AcDbCircle
 10
94.96320579912546
 20
128.3746795803143
 30
0.0
 40
0.37499999999924
100
AcDbArc
 50
35.90957617705512
 51
180.0
  0
ARC
  5
202
330
1F
100
AcDbEntity
  8
Sichtbare_Kanten_TC_020513_DIN_
  6
Continuous
 62
     7
100
AcDbCircle
 10
97.96320579912546
 20
128.3746795803143
 30
0.0
 40
0.375
100
AcDbArc
 50
0.0
 51
144.0904238230468
  0
ARC
  5
203
330
1F
100
AcDbEntity
  8
Sichtbare_Kanten_TC_020513_DIN_
  6
Continuous
 62
     7
100
AcDbCircle
 10
97.96320579912546
 20
121.4530445645113
 30
0.0
 40
0.375
100
AcDbArc
 50
180.0
 51
0.0
  0
ARC
  5
204
330
1F
100
AcDbEntity
  8
Sichtbare_Kanten_TC_020513_DIN_
  6
Continuous
 62
     7
100
AcDbCircle
 10
93.38820579912519
 20
127.4660257341602
 30
0.0
 40
0.375
100
AcDbArc
 50
0.0
 51
180.0
  0
ARC
  5
205
330
1F
100
AcDbEntity
  8
Sichtbare_Kanten_TC_020513_DIN_
  6
Continuous
 62
     7
100
AcDbCircle
 10
96.46320579912546
 20
120.5876599491262
 30
0.0
 40
0.3750000000001412
100
AcDbArc
 50
240.0183606310754
 51
60.01836063124723
  0
ARC
  5
206
330
1F
100
AcDbEntity
  8
Sichtbare_Kanten_TC_020513_DIN_
  6
Continuous
 62
     7
100
AcDbCircle
 10
93.38820579912519
 20
122.3616984106642
 30
0.0
 40
0.375
100
AcDbArc
 50
180.0
 51
240.0183606310902
  0
ARC
  5
207
330
1F
100
AcDbEntity
  8
Sichtbare_Kanten_TC_020513_DIN_
  6
Continuous
 62
     7
100
AcDbCircle
 10
91.88820579912519
 20
123.2270830260493
 30
0.0
 40
0.375
100
AcDbArc
 50
180.0
 51
0.0
  0
ARC
  5
208
330
1F
100
AcDbEntity
  8
Sichtbare_Kanten_TC_020513_DIN_
  6
Continuous
 62
     7
100
AcDbCircle
 10
91.88820579912519
 20
126.6006411187753
 30
0.0
 40
0.375
100
AcDbArc
 50
0.0
 51
180.0
  0
ARC
  5
209
330
1F
100
AcDbEntity
  8
Sichtbare_Kanten_TC_020513_DIN_
  6
Continuous
 62
     7
100
AcDbCircle
 10
99.46320579912546
 20
127.5092949649294
 30
0.0
 40
0.374999999999201
100
AcDbArc
 50
60.01836063123313
 51
180.0
  0
ARC
  5
20A
330
1F
100
AcDbEntity
  8
Sichtbare_Kanten_TC_020513_DIN_
  6
Continuous
 62
     7
100
AcDbCircle
 10
101.7132057991255
 20
126.2112180418522
 30
0.0
 40
0.3749999999998898
100
AcDbArc
 50
240.0183606310507
 51
60.01836063125967
  0
ARC
  5
20B
330
1F
100
AcDbEntity
  8
Sichtbare_Kanten_TC_020513_DIN_
  6
Continuous
 62
     7
100
AcDbCircle
 10
101.7132057991255
 20
124.9138620724123
 30
0.0
 40
0.375
100
AcDbArc
 50
270.0
 51
90.0
  0
ARC
  5
20C
330
1F
100
AcDbEntity
  8
Sichtbare_Kanten_TC_020513_DIN_
  6
Continuous
 62
     7
100
AcDbCircle
 10
101.7132057991255
 20
123.6165061029722
 30
0.0
 40
0.3749999999992729
100
AcDbArc
 50
299.9816393687555
 51
119.9816393689265
  0
ARC
  5
20D
330
1F
100
AcDbEntity
  8
Sichtbare_Kanten_TC_020513_DIN_
  6
Continuous
 62
     7
100
AcDbCircle
 10
99.46320579912546
 20
122.3184291798953
 30
0.0
 40
0.375
100
AcDbArc
 50
180.0
 51
299.9816393687441
  0
ARC
  5
20E
330
1F
100
AcDbEntity
  8
0
  6
Continuous
 62
     7
100
AcDbCircle
 10
195.4652047002476
 20
144.913862071568
 30
0.0
 40
2.5
100
AcDbArc
 50
90.00000000000911
 51
180.0000000000045
  0
ARC
  5
20F
330
1F
100
AcDbEntity
  8
0
  6
Continuous
 62
     7
100
AcDbCircle
 10
233.4652047002476
 20
144.9138620715724
 30
0.0
 40
2.5
100
AcDbArc
 50
0.00000000000717
 51
90.00000000000911
  0
ARC
  5
210
330
1F
100
AcDbEntity
  8
0
  6
Continuous
 62
     7
100
AcDbCircle
 10
126.9632057991255
 20
100.3699809906284
 30
0.0
 40
5.999999999999986
100
AcDbArc
 50
359.9999999999941
 51
10.35905248807778
  0
ARC
  5
211
330
1F
100
AcDbEntity
  8
0
  6
Continuous
 62
     7
100
AcDbCircle
 10
122.3787704120721
 20
144.9138620724117
 30
0.0
 40
2.499999999999948
100
AcDbArc
 50
10.35905248808688
 51
90.0
  0
ARC
  5
212
330
1F
100
AcDbEntity
  8
0
  6
Continuous
 62
     7
100
AcDbCircle
 10
70.54764118617885
 20
144.9138620724117
 30
0.0
 40
2.5
100
AcDbArc
 50
90.0
 51
169.6409475119136
  0
ARC
  5
213
330
1F
100
AcDbEntity
  8
0
  6
Continuous
 62
     7
100
AcDbCircle
 10
65.96320579912549
 20
100.3699809906278
 30
0.0
 40
5.999999999999993
100
AcDbArc
 50
169.6409475119166
 51
180.0
  0
CIRCLE
  5
214
330
1F
100
AcDbEntity
  8
0
  6
Continuous
 62
     7
100
AcDbCircle
 10
110.2132057991255
 20
83.91386207241315
 30
0.0
 40
3.899999999999991
  0
CIRCLE
  5
215
330
1F
100
AcDbEntity
  8
0
  6
Continuous
 62
     7
100
AcDbCircle
 10
110.2132057991255
 20
83.91386207241315
 30
0.0
 40
2.400000000000006
  0
CIRCLE
  5
216
330
1F
100
AcDbEntity
  8
0
  6
Continuous
 62
     7
100
AcDbCircle
 10
82.71320579912549
 20
83.91386207241244
 30
0.0
 40
2.399999999999977
  0
CIRCLE
  5
217
330
1F
100
AcDbEntity
  8
0
  6
Continuous
 62
     7
100
AcDbCircle
 10
82.71320579912549
 20
83.91386207241244
 30
0.0
 40
3.900000000000034
  0
SPLINE
  5
218
330
1F
100
AcDbEntity
  8
0
  6
Continuous
 62
     7
100
AcDbSpline
210
0.0
220
0.0
230
1.0
 70
     8
 71
     3
 72
     9
 73
     5
 74
     3
 42
0.000000001
 43
0.0000000001
 44
0.00000001
 40
0.0
 40
0.0
 40
0.0
 40
0.0
 40
1.652027233107461
 40
3.385012758544636
 40
3.385012758544636
 40
3.385012758544636
 40
3.385012758544636
 10
128.6816040138509
 20
109.4138620724124
 30
0.0
 10
128.2029814895278
 20
109.1249197783571
 30
0.0
 10
127.2222813344425
 20
108.5328754691777
 30
0.0
 10
126.0784254837944
 20
108.4541607301082
 30
0.0
 10
125.4928189347133
 20
108.4138620724124
 30
0.0
 11
128.6816040138509
 21
109.4138620724124
 31
0.0
 11
127.2068752530252
 21
108.669302426595
 31
0.0
 11
125.4928189347133
 21
108.4138620724124
 31
0.0
  0
SPLINE
  5
219
330
1F
100
AcDbEntity
  8
0
  6
Continuous
 62
     7
100
AcDbSpline
210
0.0
220
0.0
230
1.0
 70
     8
 71
     3
 72
     9
 73
     5
 74
     3
 42
0.000000001
 43
0.0000000001
 44
0.00000001
 40
0.0
 40
0.0
 40
0.0
 40
0.0
 40
1.825404169435576
 40
3.724389486467672
 40
3.724389486467672
 40
3.724389486467672
 40
3.724389486467672
 10
119.4605608701972
 20
141.4138620724125
 30
0.0
 10
120.0735141139368
 20
141.3663132910789
 30
0.0
 10
121.3241284423378
 20
141.2692990410282
 30
0.0
 10
122.4439597075801
 20
140.7027388297242
 30
0.0
 10
123.0149373471843
 20
140.4138620724123
 30
0.0
 11
119.4605608701972
 21
141.4138620724125
 31
0.0
 11
121.2680039846619
 21
141.1584217182299
 31
0.0
 11
123.0149373471843
 21
140.4138620724123
 31
0.0
  0
SPLINE
  5
21A
330
1F
100
AcDbEntity
  8
0
  6
Continuous
 62
     7
100
AcDbSpline
210
0.0
220
0.0
230
1.0
 70
     8
 71
     3
 72
     9
 73
     5
 74
     3
 42
0.000000001
 43
0.0000000001
 44
0.00000001
 40
0.0
 40
0.0
 40
0.0
 40
0.0
 40
1.732985525437088
 40
3.385012758544568
 40
3.385012758544568
 40
3.385012758544568
 40
3.385012758544568
 10
67.43359266353758
 20
108.4138620724124
 30
0.0
 10
66.84798611445657
 20
108.4541607301082
 30
0.0
 10
65.70413026380842
 20
108.5328754691777
 30
0.0
 10
64.72343010872308
 20
109.1249197783571
 30
0.0
 10
64.24480758440006
 20
109.4138620724124
 30
0.0
 11
67.43359266353758
 21
108.4138620724124
 31
0.0
 11
65.71953634522575
 21
108.6693024265949
 31
0.0
 11
64.24480758440006
 21
109.4138620724124
 31
0.0
  0
SPLINE
  5
21B
330
1F
100
AcDbEntity
  8
0
  6
Continuous
 62
     7
100
AcDbSpline
210
0.0
220
0.0
230
1.0
 70
     8
 71
     3
 72
     9
 73
     5
 74
     3
 42
0.000000001
 43
0.0000000001
 44
0.00000001
 40
0.0
 40
0.0
 40
0.0
 40
0.0
 40
1.89898531703207
 40
3.724389486467562
 40
3.724389486467562
 40
3.724389486467562
 40
3.724389486467562
 10
69.91147425106669
 20
140.4138620724123
 30
0.0
 10
70.48245189067084
 20
140.7027388297242
 30
0.0
 10
71.60228315591314
 20
141.2692990410281
 30
0.0
 10
72.85289748431413
 20
141.3663132910789
 30
0.0
 10
73.46585072805368
 20
141.4138620724125
 30
0.0
 11
69.91147425106669
 21
140.4138620724123
 31
0.0
 11
71.65840761358909
 21
141.1584217182299
 31
0.0
 11
73.46585072805368
 21
141.4138620724125
 31
0.0
  0
LWPOLYLINE
  5
21C
330
1F
100
AcDbEntity
  8
0
  6
Continuous
 62
     7
 60
     1
100
AcDbPolyline
 90
        2
 70
     0
 43
0.0
 10
-1756.104848900709
 20
3121.471926673017
 10
-1720.021144589957
 20
3098.031098144886
  0
LWPOLYLINE
  5
21D
330
1F
100
AcDbEntity
  8
0
  6
Continuous
 62
     7
 60
     1
100
AcDbPolyline
 90
        2
 70
     0
 43
0.0
 10
-1639.710629918418
 20
3121.471926673017
 10
-1603.626925607677
 20
3103.031098144886
  0
LWPOLYLINE
  5
21E
330
1F
100
AcDbEntity
  8
0
  6
Continuous
 62
     7
 60
     1
100
AcDbPolyline
 90
        2
 70
     0
 43
0.0
 10
-1354.710629918416
 20
3121.471926673017
 10
-1318.626925607668
 20
3130.931098144876
  0
LWPOLYLINE
  5
21F
330
1F
100
AcDbEntity
  8
0
  6
Continuous
 62
     7
 60
     1
100
AcDbPolyline
 90
        2
 70
     0
 43
0.0
 10
-1749.877429545869
 20
3117.2974811085
 10
-1713.793725235118
 20
3093.85665258037
  0
LWPOLYLINE
  5
220
330
1F
100
AcDbEntity
  8
0
  6
Continuous
 62
     7
 60
     1
100
AcDbPolyline
 90
        2
 70
     0
 43
0.0
 10
-1633.483210563578
 20
3117.2974811085
 10
-1597.399506252838
 20
3098.85665258037
  0
LWPOLYLINE
  5
221
330
1F
100
AcDbEntity
  8
0
  6
Continuous
 62
     7
 60
     1
100
AcDbPolyline
 90
        2
 70
     0
 43
0.0
 10
-1348.483210563577
 20
3117.2974811085
 10
-1312.399506252829
 20
3126.75665258036
  0
LWPOLYLINE
  5
222
330
1F
100
AcDbEntity
  8
0
  6
Continuous
 62
     7
 60
     1
100
AcDbPolyline
 90
        2
 70
     0
 43
0.0
 10
-1749.877429545869
 20
3117.2974811085
 10
-1713.793725235118
 20
3093.85665258037
  0
LWPOLYLINE
  5
223
330
1F
100
AcDbEntity
  8
0
  6
Continuous
 62
     7
 60
     1
100
AcDbPolyline
 90
        2
 70
     0
 43
0.0
 10
-1633.483210563578
 20
3117.2974811085
 10
-1597.399506252838
 20
3098.85665258037
  0
LWPOLYLINE
  5
224
330
1F
100
AcDbEntity
  8
0
  6
Continuous
 62
     7
 60
     1
100
AcDbPolyline
 90
        2
 70
     0
 43
0.0
 10
-1348.483210563577
 20
3117.2974811085
 10
-1312.399506252829
 20
3126.75665258036
  0
LWPOLYLINE
  5
225
330
1F
100
AcDbEntity
  8
0
  6
Continuous
 62
     7
 60
     1
100
AcDbPolyline
 90
        2
 70
     0
 43
0.0
 10
-1768.151847272609
 20
3115.964929507814
 10
-1732.068142961857
 20
3092.524100979683
  0
LWPOLYLINE
  5
226
330
1F
100
AcDbEntity
  8
0
  6
Continuous
 62
     7
 60
     1
100
AcDbPolyline
 90
        2
 70
     0
 43
0.0
 10
-1651.757628290317
 20
3115.964929507814
 10
-1615.673923979577
 20
3097.524100979683
  0
LWPOLYLINE
  5
227
330
1F
100
AcDbEntity
  8
0
  6
Continuous
 62
     7
 60
     1
100
AcDbPolyline
 90
        2
 70
     0
 43
0.0
 10
-1366.757628290316
 20
3115.964929507814
 10
-1330.673923979568
 20
3125.424100979673
  0
LWPOLYLINE
  5
228
330
1F
100
AcDbEntity
  8
0
  6
Continuous
 62
     7
 60
     1
100
AcDbPolyline
 90
        2
 70
     0
 43
0.0
 10
-1761.924427917769
 20
3111.790483943297
 10
-1725.840723607018
 20
3088.349655415168
  0
LWPOLYLINE
  5
229
330
1F
100
AcDbEntity
  8
0
  6
Continuous
 62
     7
 60
     1
100
AcDbPolyline
 90
        2
 70
     0
 43
0.0
 10
-1645.530208935478
 20
3111.790483943297
 10
-1609.446504624738
 20
3093.349655415168
  0
LWPOLYLINE
  5
22A
330
1F
100
AcDbEntity
  8
0
  6
Continuous
 62
     7
 60
     1
100
AcDbPolyline
 90
        2
 70
     0
 43
0.0
 10
-1360.530208935477
 20
3111.790483943297
 10
-1324.446504624729
 20
3121.249655415158
  0
LWPOLYLINE
  5
22B
330
1F
100
AcDbEntity
  8
0
  6
Continuous
 62
     7
 60
     1
100
AcDbPolyline
 90
        2
 70
     0
 43
0.0
 10
-1761.924427917769
 20
3111.790483943297
 10
-1725.840723607018
 20
3088.349655415168
  0
LWPOLYLINE
  5
22C
330
1F
100
AcDbEntity
  8
0
  6
Continuous
 62
     7
 60
     1
100
AcDbPolyline
 90
        2
 70
     0
 43
0.0
 10
-1645.530208935478
 20
3111.790483943297
 10
-1609.446504624738
 20
3093.349655415168
  0
LWPOLYLINE
  5
22D
330
1F
100
AcDbEntity
  8
0
  6
Continuous
 62
     7
 60
     1
100
AcDbPolyline
 90
        2
 70
     0
 43
0.0
 10
-1360.530208935477
 20
3111.790483943297
 10
-1324.446504624729
 20
3121.249655415158
  0
LWPOLYLINE
  5
22E
330
1F
100
AcDbEntity
  8
0
  6
Continuous
 62
     7
 60
     1
100
AcDbPolyline
 90
        2
 70
     0
 43
0.0
 10
-2021.713458422446
 20
2881.628959171573
 10
-1985.629754111694
 20
2858.188130643442
  0
LWPOLYLINE
  5
22F
330
1F
100
AcDbEntity
  8
0
  6
Continuous
 62
     7
 60
     1
100
AcDbPolyline
 90
        2
 70
     0
 43
0.0
 10
-1905.319239440155
 20
2881.628959171573
 10
-1869.235535129414
 20
2863.188130643442
  0
LWPOLYLINE
  5
230
330
1F
100
AcDbEntity
  8
0
  6
Continuous
 62
     7
 60
     1
100
AcDbPolyline
 90
        2
 70
     0
 43
0.0
 10
-1620.319239440153
 20
2881.628959171573
 10
-1584.235535129405
 20
2891.088130643432
  0
LWPOLYLINE
  5
231
330
1F
100
AcDbEntity
  8
0
  6
Continuous
 62
     7
 60
     1
100
AcDbPolyline
 90
        2
 70
     0
 43
0.0
 10
-2015.486039067606
 20
2877.454513607056
 10
-1979.402334756855
 20
2854.013685078926
  0
LWPOLYLINE
  5
232
330
1F
100
AcDbEntity
  8
0
  6
Continuous
 62
     7
 60
     1
100
AcDbPolyline
 90
        2
 70
     0
 43
0.0
 10
-1899.091820085315
 20
2877.454513607056
 10
-1863.008115774575
 20
2859.013685078926
  0
LWPOLYLINE
  5
233
330
1F
100
AcDbEntity
  8
0
  6
Continuous
 62
     7
 60
     1
100
AcDbPolyline
 90
        2
 70
     0
 43
0.0
 10
-1614.091820085314
 20
2877.454513607056
 10
-1578.008115774566
 20
2886.913685078916
  0
LWPOLYLINE
  5
234
330
1F
100
AcDbEntity
  8
0
  6
Continuous
 62
     7
 60
     1
100
AcDbPolyline
 90
        2
 70
     0
 43
0.0
 10
-2015.486039067606
 20
2877.454513607056
 10
-1979.402334756855
 20
2854.013685078926
  0
LWPOLYLINE
  5
235
330
1F
100
AcDbEntity
  8
0
  6
Continuous
 62
     7
 60
     1
100
AcDbPolyline
 90
        2
 70
     0
 43
0.0
 10
-1899.091820085315
 20
2877.454513607056
 10
-1863.008115774575
 20
2859.013685078926
  0
LWPOLYLINE
  5
236
330
1F
100
AcDbEntity
  8
0
  6
Continuous
 62
     7
 60
     1
100
AcDbPolyline
 90
        2
 70
     0
 43
0.0
 10
-1614.091820085314
 20
2877.454513607056
 10
-1578.008115774566
 20
2886.913685078916
  0
LWPOLYLINE
  5
237
330
1F
100
AcDbEntity
  8
0
  6
Continuous
 62
     7
 60
     1
100
AcDbPolyline
 90
        2
 70
     0
 43
0.0
 10
-2033.760456794346
 20
2876.12196200637
 10
-1997.676752483594
 20
2852.681133478239
  0
LWPOLYLINE
  5
238
330
1F
100
AcDbEntity
  8
0
  6
Continuous
 62
     7
 60
     1
100
AcDbPolyline
 90
        2
 70
     0
 43
0.0
 10
-1917.366237812054
 20
2876.12196200637
 10
-1881.282533501314
 20
2857.681133478239
  0
LWPOLYLINE
  5
239
330
1F
100
AcDbEntity
  8
0
  6
Continuous
 62
     7
 60
     1
100
AcDbPolyline
 90
        2
 70
     0
 43
0.0
 10
-1632.366237812053
 20
2876.12196200637
 10
-1596.282533501305
 20
2885.581133478229
  0
LWPOLYLINE
  5
23A
330
1F
100
AcDbEntity
  8
0
  6
Continuous
 62
     7
 60
     1
100
AcDbPolyline
 90
        2
 70
     0
 43
0.0
 10
-2027.533037439506
 20
2871.947516441853
 10
-1991.449333128755
 20
2848.506687913724
  0
LWPOLYLINE
  5
23B
330
1F
100
AcDbEntity
  8
0
  6
Continuous
 62
     7
 60
     1
100
AcDbPolyline
 90
        2
 70
     0
 43
0.0
 10
-1911.138818457215
 20
2871.947516441853
 10
-1875.055114146475
 20
2853.506687913724
  0
LWPOLYLINE
  5
23C
330
1F
100
AcDbEntity
  8
0
  6
Continuous
 62
     7
 60
     1
100
AcDbPolyline
 90
        2
 70
     0
 43
0.0
 10
-1626.138818457214
 20
2871.947516441853
 10
-1590.055114146466
 20
2881.406687913714
  0
LWPOLYLINE
  5
23D
330
1F
100
AcDbEntity
  8
0
  6
Continuous
 62
     7
 60
     1
100
AcDbPolyline
 90
        2
 70
     0
 43
0.0
 10
-2027.533037439506
 20
2871.947516441853
 10
-1991.449333128755
 20
2848.506687913724
  0
LWPOLYLINE
  5
23E
330
1F
100
AcDbEntity
  8
0
  6
Continuous
 62
     7
 60
     1
100
AcDbPolyline
 90
        2
 70
     0
 43
0.0
 10
-1911.138818457215
 20
2871.947516441853
 10
-1875.055114146475
 20
2853.506687913724
  0
LWPOLYLINE
  5
23F
330
1F
100
AcDbEntity
  8
0
  6
Continuous
 62
     7
 60
     1
100
AcDbPolyline
 90
        2
 70
     0
 43
0.0
 10
-1626.138818457214
 20
2871.947516441853
 10
-1590.055114146466
 20
2881.406687913714
  0
MTEXT
  5
241
330
1F
100
AcDbEntity
  8
1
 62
     4
100
AcDbMText
 10
214.4652047002912
 20
72.40386184185026
 30
0.0
 40
3.5
 41
0.0
 71
     2
 72
     1
  1
 
  7
CONVERTER_14
 73
     1
 44
1.32052821128451
  0
MTEXT
  5
242
330
1F
100
AcDbEntity
  8
1
 62
     4
100
AcDbMText
 10
96.46320579907007
 20
72.40386184269015
 30
0.0
 40
3.5
 41
0.0
 71
     2
 72
     1
  1
 
  7
CONVERTER_14
 73
     1
 44
1.32052821128451
  0
DIMENSION
  5
24D
330
1F
100
AcDbEntity
  8
1
100
AcDbDimension
  2
*D3
 10
132.9632057991255
 20
67.40386207241245
 30
0.0
 11
96.46320579912549
 21
70.90386207241245
 31
0.0
 70
    32
  1
<>
 71
     5
 42
-1.0
 53
0.00013888888889
  3
ME10_DIM_10
100
AcDbAlignedDimension
 13
59.96320579912549
 23
77.40386207241174
 33
0.0
 14
132.9632057991255
 24
77.40386207241174
 34
0.0
100
AcDbRotatedDimension
  0
DIMENSION
  5
258
330
1F
100
AcDbEntity
  8
1
100
AcDbDimension
  2
*D4
 10
235.9652047002552
 20
67.40386207241245
 30
0.0
 11
214.4652047002552
 21
70.90386207241245
 31
0.0
 70
    32
  1
<>
 71
     5
 42
-1.0
 53
0.00013888888889
  3
ME10_DIM_11
100
AcDbAlignedDimension
 13
192.9652047002552
 23
77.40386207156776
 33
0.0
 14
235.9652047002552
 24
77.40386207157265
 34
0.0
100
AcDbRotatedDimension
  0
DIMENSION
  5
263
330
1F
100
AcDbEntity
  8
1
100
AcDbDimension
  2
*D5
 10
174.305837424418
 20
147.4138620715684
 30
0.0
 11
170.805837424418
 21
112.4088620715684
 31
0.0
 70
    32
  1
70
 71
     5
 42
-1.0
 53
90.0
  3
ME10_DIM_12
100
AcDbAlignedDimension
 13
198.9652047002552
 23
77.40386207156844
 33
0.0
 14
198.9652047002472
 24
147.4138620715684
 34
0.0
 50
90.0
100
AcDbRotatedDimension
  0
DIMENSION
  5
26E
330
1F
100
AcDbEntity
  8
1
100
AcDbDimension
  2
*D6
 10
80.46320579912549
 20
163.964912646716
 30
0.0
 11
96.48160289956274
 21
167.464912646716
 31
0.0
 70
    32
  1
M32
 71
     5
 42
-1.0
 53
0.00013888888889
  3
ME10_DIM_13
100
AcDbAlignedDimension
 13
112.5
 23
147.4138620724122
 33
0.0
 14
80.46320579912549
 24
147.4138620724122
 34
0.0
100
AcDbRotatedDimension
  0
ENDSEC
  0
SECTION
  2
OBJECTS
  0
DICTIONARY
  5
C
330
0
100
AcDbDictionary
281
     1
  3
ACAD_GROUP
350
D
  3
ACAD_LAYOUT
350
1A
  3
ACAD_MATERIAL
350
3B
  3
ACAD_MLEADERSTYLE
350
271
  3
ACAD_MLINESTYLE
350
17
  3
ACAD_PLOTSETTINGS
350
19
  3
ACAD_PLOTSTYLENAME
350
E
  3
ACAD_VISUALSTYLE
350
2A
  3
AcDbVariableDictionary
350
26F
  0
DICTIONARY
  5
D
102
{ACAD_REACTORS
330
C
102
}
330
C
100
AcDbDictionary
281
     1
  0
DICTIONARY
  5
1A
102
{ACAD_REACTORS
330
C
102
}
330
C
100
AcDbDictionary
281
     1
  3
Layout1
350
1E
  3
Layout2
350
26
  3
Model
350
22
  0
DICTIONARY
  5
3B
102
{ACAD_REACTORS
330
C
102
}
330
C
100
AcDbDictionary
281
     1
  3
ByBlock
350
3D
  3
ByLayer
350
3C
  3
Global
350
3E
  0
DICTIONARY
  5
271
102
{ACAD_REACTORS
330
C
102
}
330
C
100
AcDbDictionary
281
     1
  0
DICTIONARY
  5
17
102
{ACAD_REACTORS
330
C
102
}
330
C
100
AcDbDictionary
281
     1
  3
Standard
350
18
  0
DICTIONARY
  5
19
102
{ACAD_REACTORS
330
C
102
}
330
C
100
AcDbDictionary
281
     1
  0
ACDBDICTIONARYWDFLT
  5
E
102
{ACAD_REACTORS
330
C
102
}
330
C
100
AcDbDictionary
281
     1
  3
Normal
350
F
100
AcDbDictionaryWithDefault
340
F
  0
DICTIONARY
  5
2A
102
{ACAD_REACTORS
330
C
102
}
330
C
100
AcDbDictionary
281
     1
  3
2dWireframe
350
2F
  3
3D Hidden
350
31
  3
3dWireframe
350
30
  3
Basic
350
32
  3
Brighten
350
36
  3
ColorChange
350
3A
  3
Conceptual
350
34
  3
Dim
350
35
  3
Facepattern
350
39
  3
Flat
350
2B
  3
FlatWithEdges
350
2C
  3
Gouraud
350
2D
  3
GouraudWithEdges
350
2E
  3
Linepattern
350
38
  3
Realistic
350
33
  3
Thicken
350
37
  0
DICTIONARY
  5
26F
102
{ACAD_REACTORS
330
C
102
}
330
C
100
AcDbDictionary
281
     1
  3
DIMASSOC
350
272
  3
HIDETEXT
350
273
  0
LAYOUT
  5
1E
102
{ACAD_REACTORS
330
1A
102
}
330
1A
100
AcDbPlotSettings
  1

  2
none_device
  4

  6

 40
0.0
 41
0.0
 42
0.0
 43
0.0
 44
0.0
 45
0.0
 46
0.0
 47
0.0
 48
0.0
 49
0.0
140
0.0
141
0.0
142
1.0
143
1.0
 70
   688
 72
     0
 73
     0
 74
     5
  7

 75
    16
147
1.0
148
0.0
149
0.0
100
AcDbLayout
  1
Layout1
 70
     1
 71
     1
 10
0.0
 20
0.0
 11
12.0
 21
9.0
 12
0.0
 22
0.0
 32
0.0
 14
1.00000000000000E+20
 24
1.00000000000000E+20
 34
1.00000000000000E+20
 15
-1.00000000000000E+20
 25
-1.00000000000000E+20
 35
-1.00000000000000E+20
146
0.0
 13
0.0
 23
0.0
 33
0.0
 16
1.0
 26
0.0
 36
0.0
 17
0.0
 27
1.0
 37
0.0
 76
     0
330
1B
  0
LAYOUT
  5
26
102
{ACAD_REACTORS
330
1A
102
}
330
1A
100
AcDbPlotSettings
  1

  2
none_device
  4

  6

 40
0.0
 41
0.0
 42
0.0
 43
0.0
 44
0.0
 45
0.0
 46
0.0
 47
0.0
 48
0.0
 49
0.0
140
0.0
141
0.0
142
1.0
143
1.0
 70
   688
 72
     0
 73
     0
 74
     5
  7

 75
    16
147
1.0
148
0.0
149
0.0
100
AcDbLayout
  1
Layout2
 70
     1
 71
     2
 10
0.0
 20
0.0
 11
0.0
 21
0.0
 12
0.0
 22
0.0
 32
0.0
 14
0.0
 24
0.0
 34
0.0
 15
0.0
 25
0.0
 35
0.0
146
0.0
 13
0.0
 23
0.0
 33
0.0
 16
1.0
 26
0.0
 36
0.0
 17
0.0
 27
1.0
 37
0.0
 76
     0
330
23
  0
LAYOUT
  5
22
102
{ACAD_REACTORS
330
1A
102
}
330
1A
100
AcDbPlotSettings
  1

  2
none_device
  4

  6

 40
0.0
 41
0.0
 42
0.0
 43
0.0
 44
0.0
 45
0.0
 46
0.0
 47
0.0
 48
0.0
 49
0.0
140
0.0
141
0.0
142
1.0
143
1.0
 70
  1712
 72
     0
 73
     0
 74
     0
  7

 75
     0
147
1.0
148
0.0
149
0.0
100
AcDbLayout
  1
Model
 70
     1
 71
     0
 10
0.0
 20
0.0
 11
12.0
 21
9.0
 12
0.0
 22
0.0
 32
0.0
 14
0.0
 24
0.0
 34
0.0
 15
297.0000000000002
 25
210.0000000000002
 35
0.0
146
0.0
 13
0.0
 23
0.0
 33
0.0
 16
1.0
 26
0.0
 36
0.0
 17
0.0
 27
1.0
 37
0.0
 76
     0
330
1F
331
29
  0
MATERIAL
  5
3D
102
{ACAD_REACTORS
330
3B
102
}
102
{ACAD_XDICTIONARY
360
296
102
}
330
3B
100
AcDbMaterial
  1
ByBlock
  0
MATERIAL
  5
3C
102
{ACAD_REACTORS
330
3B
102
}
102
{ACAD_XDICTIONARY
360
294
102
}
330
3B
100
AcDbMaterial
  1
ByLayer
  0
MATERIAL
  5
3E
102
{ACAD_REACTORS
330
3B
102
}
102
{ACAD_XDICTIONARY
360
298
102
}
330
3B
100
AcDbMaterial
  1
Global
  0
MLINESTYLE
  5
18
102
{ACAD_REACTORS
330
17
102
}
330
17
100
AcDbMlineStyle
  2
Standard
 70
     0
  3

 62
   256
 51
90.0
 52
90.0
 71
     2
 49
0.5
 62
   256
  6
BYLAYER
 49
-0.5
 62
   256
  6
BYLAYER
  0
ACDBPLACEHOLDER
  5
F
102
{ACAD_REACTORS
330
E
102
}
330
E
  0
VISUALSTYLE
  5
2F
102
{ACAD_REACTORS
330
2A
102
}
102
{ACAD_XDICTIONARY
360
27C
102
}
330
2A
100
AcDbVisualStyle
  2
2dWireframe
 70
     4
 71
     0
 72
     2
 73
     0
 90
        0
 40
-0.6
 41
-30.0
 62
     5
 63
     7
 74
     1
 91
        4
 64
     7
 65
   257
 75
     1
175
     1
 42
1.0
 92
        0
 66
   257
 43
1.0
 76
     1
 77
     6
 78
     2
 67
     7
 79
     5
170
     0
171
     0
290
     0
174
     0
 93
        1
 44
0.0
173
     0
291
     0
 45
0.0
1001
ACAD
1000
AcDbSavedByObjectVersion
1070
     0
  0
VISUALSTYLE
  5
31
102
{ACAD_REACTORS
330
2A
102
}
102
{ACAD_XDICTIONARY
360
280
102
}
330
2A
100
AcDbVisualStyle
  2
3D Hidden
 70
     6
 71
     1
 72
     2
 73
     2
 90
        0
 40
-0.6
 41
-30.0
 62
     5
 63
     7
 74
     2
 91
        2
 64
     7
 65
   257
 75
     2
175
     1
 42
40.0
 92
        0
 66
   257
 43
1.0
 76
     1
 77
     6
 78
     2
 67
     7
 79
     3
170
     0
171
     0
290
     0
174
     0
 93
        1
 44
0.0
173
     0
291
     0
 45
0.0
1001
ACAD
1000
AcDbSavedByObjectVersion
1070
     0
  0
VISUALSTYLE
  5
30
102
{ACAD_REACTORS
330
2A
102
}
102
{ACAD_XDICTIONARY
360
27E
102
}
330
2A
100
AcDbVisualStyle
  2
3dWireframe
 70
     5
 71
     0
 72
     2
 73
     0
 90
        0
 40
-0.6
 41
-30.0
 62
     5
 63
     7
 74
     1
 91
        4
 64
     7
 65
   257
 75
     1
175
     1
 42
1.0
 92
        0
 66
   257
 43
1.0
 76
     1
 77
     6
 78
     2
 67
     7
 79
     5
170
     0
171
     0
290
     0
174
     0
 93
        1
 44
0.0
173
     0
291
     0
 45
0.0
1001
ACAD
1000
AcDbSavedByObjectVersion
1070
     0
  0
VISUALSTYLE
  5
32
102
{ACAD_REACTORS
330
2A
102
}
102
{ACAD_XDICTIONARY
360
282
102
}
330
2A
100
AcDbVisualStyle
  2
Basic
 70
     7
 71
     1
 72
     0
 73
     1
 90
        0
 40
-0.6
 41
-30.0
 62
     5
 63
     7
 74
     0
 91
        4
 64
     7
 65
   257
 75
     1
175
     1
 42
1.0
 92
        8
 66
     7
 43
1.0
 76
     1
 77
     6
 78
     2
 67
     7
 79
     5
170
     0
171
     0
290
     0
174
     0
 93
        1
 44
0.0
173
     0
291
     1
 45
0.0
1001
ACAD
1000
AcDbSavedByObjectVersion
1070
     0
  0
VISUALSTYLE
  5
36
102
{ACAD_REACTORS
330
2A
102
}
102
{ACAD_XDICTIONARY
360
28A
102
}
330
2A
100
AcDbVisualStyle
  2
Brighten
 70
    12
 71
     2
 72
     2
 73
     0
 90
        0
 40
-0.6
 41
-30.0
 62
     5
 63
     7
 74
     1
 91
        4
 64
     7
 65
   257
 75
     1
175
     1
 42
1.0
 92
        8
 66
     7
 43
1.0
 76
     1
 77
     6
 78
     2
 67
     7
 79
     5
170
     0
171
     0
290
     0
174
     0
 93
        1
 44
50.0
173
     0
291
     1
 45
0.0
1001
ACAD
1000
AcDbSavedByObjectVersion
1070
     0
  0
VISUALSTYLE
  5
3A
102
{ACAD_REACTORS
330
2A
102
}
102
{ACAD_XDICTIONARY
360
292
102
}
330
2A
100
AcDbVisualStyle
  2
ColorChange
 70
    16
 71
     2
 72
     2
 73
     3
 90
        0
 40
-0.6
 41
-30.0
 62
     5
 63
     8
 74
     1
 91
        4
 64
     7
 65
   257
 75
     1
175
     1
 42
1.0
 92
        8
 66
     8
 43
1.0
 76
     1
 77
     6
 78
     2
 67
     7
 79
     5
170
     0
171
     0
290
     0
174
     0
 93
        1
 44
0.0
173
     0
291
     1
 45
0.0
1001
ACAD
1000
AcDbSavedByObjectVersion
1070
     0
  0
VISUALSTYLE
  5
34
102
{ACAD_REACTORS
330
2A
102
}
102
{ACAD_XDICTIONARY
360
286
102
}
330
2A
100
AcDbVisualStyle
  2
Conceptual
 70
     9
 71
     3
 72
     2
 73
     0
 90
        0
 40
-0.6
 41
-30.0
 62
     5
 63
     7
 74
     2
 91
        2
 64
     7
 65
   257
 75
     1
175
     1
 42
40.0
 92
        8
 66
     7
 43
1.0
 76
     1
 77
     6
 78
     2
 67
     7
 79
     3
170
     0
171
     0
290
     0
174
     0
 93
        1
 44
0.0
173
     0
291
     0
 45
0.0
1001
ACAD
1000
AcDbSavedByObjectVersion
1070
     0
  0
VISUALSTYLE
  5
35
102
{ACAD_REACTORS
330
2A
102
}
102
{ACAD_XDICTIONARY
360
288
102
}
330
2A
100
AcDbVisualStyle
  2
Dim
 70
    11
 71
     2
 72
     2
 73
     0
 90
        0
 40
-0.6
 41
-30.0
 62
     5
 63
     7
 74
     1
 91
        4
 64
     7
 65
   257
 75
     1
175
     1
 42
1.0
 92
        8
 66
     7
 43
1.0
 76
     1
 77
     6
 78
     2
 67
     7
 79
     5
170
     0
171
     0
290
     0
174
     0
 93
        1
 44
-50.0
173
     0
291
     1
 45
0.0
1001
ACAD
1000
AcDbSavedByObjectVersion
1070
     0
  0
VISUALSTYLE
  5
39
102
{ACAD_REACTORS
330
2A
102
}
102
{ACAD_XDICTIONARY
360
290
102
}
330
2A
100
AcDbVisualStyle
  2
Facepattern
 70
    15
 71
     2
 72
     2
 73
     0
 90
        0
 40
-0.6
 41
-30.0
 62
     5
 63
     7
 74
     1
 91
        4
 64
     7
 65
   257
 75
     1
175
     1
 42
1.0
 92
        8
 66
     7
 43
1.0
 76
     1
 77
     6
 78
     2
 67
     7
 79
     5
170
     0
171
     0
290
     0
174
     0
 93
        1
 44
0.0
173
     0
291
     1
 45
0.0
1001
ACAD
1000
AcDbSavedByObjectVersion
1070
     0
  0
VISUALSTYLE
  5
2B
102
{ACAD_REACTORS
330
2A
102
}
102
{ACAD_XDICTIONARY
360
274
102
}
330
2A
100
AcDbVisualStyle
  2
Flat
 70
     0
 71
     2
 72
     1
 73
     1
 90
        2
 40
-0.6
 41
30.0
 62
     5
 63
     7
 74
     0
 91
        4
 64
     7
 65
   257
 75
     1
175
     1
 42
1.0
 92
        8
 66
     7
 43
1.0
 76
     1
 77
     6
 78
     2
 67
     7
 79
     5
170
     0
171
     0
290
     0
174
     0
 93
       13
 44
0.0
173
     0
291
     1
 45
0.0
1001
ACAD
1000
AcDbSavedByObjectVersion
1070
     0
  0
VISUALSTYLE
  5
2C
102
{ACAD_REACTORS
330
2A
102
}
102
{ACAD_XDICTIONARY
360
276
102
}
330
2A
100
AcDbVisualStyle
  2
FlatWithEdges
 70
     1
 71
     2
 72
     1
 73
     1
 90
        2
 40
-0.6
 41
30.0
 62
     5
 63
     7
 74
     1
 91
        4
 64
     7
 65
   257
 75
     1
175
     1
 42
1.0
 92
        0
 66
   257
 43
1.0
 76
     1
 77
     6
 78
     2
 67
     7
 79
     5
170
     0
171
     0
290
     0
174
     0
 93
       13
 44
0.0
173
     0
291
     1
 45
0.0
1001
ACAD
1000
AcDbSavedByObjectVersion
1070
     0
  0
VISUALSTYLE
  5
2D
102
{ACAD_REACTORS
330
2A
102
}
102
{ACAD_XDICTIONARY
360
278
102
}
330
2A
100
AcDbVisualStyle
  2
Gouraud
 70
     2
 71
     2
 72
     2
 73
     1
 90
        2
 40
-0.6
 41
30.0
 62
     5
 63
     7
 74
     0
 91
        4
 64
     7
 65
   257
 75
     1
175
     1
 42
1.0
 92
        0
 66
     7
 43
1.0
 76
     1
 77
     6
 78
     2
 67
     7
 79
     5
170
     0
171
     0
290
     0
174
     0
 93
       13
 44
0.0
173
     0
291
     1
 45
0.0
1001
ACAD
1000
AcDbSavedByObjectVersion
1070
     0
  0
VISUALSTYLE
  5
2E
102
{ACAD_REACTORS
330
2A
102
}
102
{ACAD_XDICTIONARY
360
27A
102
}
330
2A
100
AcDbVisualStyle
  2
GouraudWithEdges
 70
     3
 71
     2
 72
     2
 73
     1
 90
        2
 40
-0.6
 41
30.0
 62
     5
 63
     7
 74
     1
 91
        4
 64
     7
 65
   257
 75
     1
175
     1
 42
1.0
 92
        0
 66
   257
 43
1.0
 76
     1
 77
     6
 78
     2
 67
     7
 79
     5
170
     0
171
     0
290
     0
174
     0
 93
       13
 44
0.0
173
     0
291
     1
 45
0.0
1001
ACAD
1000
AcDbSavedByObjectVersion
1070
     0
  0
VISUALSTYLE
  5
38
102
{ACAD_REACTORS
330
2A
102
}
102
{ACAD_XDICTIONARY
360
28E
102
}
330
2A
100
AcDbVisualStyle
  2
Linepattern
 70
    14
 71
     2
 72
     2
 73
     0
 90
        0
 40
-0.6
 41
-30.0
 62
     5
 63
     7
 74
     1
 91
        4
 64
     7
 65
   257
 75
     7
175
     7
 42
1.0
 92
        8
 66
     7
 43
1.0
 76
     1
 77
     6
 78
     2
 67
     7
 79
     5
170
     0
171
     0
290
     0
174
     0
 93
        1
 44
0.0
173
     0
291
     1
 45
0.0
1001
ACAD
1000
AcDbSavedByObjectVersion
1070
     0
  0
VISUALSTYLE
  5
33
102
{ACAD_REACTORS
330
2A
102
}
102
{ACAD_XDICTIONARY
360
284
102
}
330
2A
100
AcDbVisualStyle
  2
Realistic
 70
     8
 71
     2
 72
     2
 73
     0
 90
        0
 40
-0.6
 41
-30.0
 62
     5
 63
     7
 74
     1
 91
        0
 64
     7
 65
   257
 75
     1
175
     1
 42
1.0
 92
        8
 66
     8
 43
1.0
 76
     1
 77
     6
 78
     2
 67
     7
 79
     5
170
     0
171
     0
290
     0
174
     0
 93
       13
 44
0.0
173
     0
291
     0
 45
0.0
1001
ACAD
1000
AcDbSavedByObjectVersion
1070
     0
  0
VISUALSTYLE
  5
37
102
{ACAD_REACTORS
330
2A
102
}
102
{ACAD_XDICTIONARY
360
28C
102
}
330
2A
100
AcDbVisualStyle
  2
Thicken
 70
    13
 71
     2
 72
     2
 73
     0
 90
        0
 40
-0.6
 41
-30.0
 62
     5
 63
     7
 74
     1
 91
        4
 64
     7
 65
   257
 75
     1
175
     1
 42
1.0
 92
       12
 66
     7
 43
1.0
 76
     1
 77
     6
 78
     2
 67
     7
 79
     5
170
     0
171
     0
290
     0
174
     0
 93
        1
 44
0.0
173
     0
291
     1
 45
0.0
1001
ACAD
1000
AcDbSavedByObjectVersion
1070
     0
  0
DICTIONARYVAR
  5
272
102
{ACAD_REACTORS
330
26F
102
}
330
26F
100
DictionaryVariables
280
     0
  1
2
  0
DICTIONARYVAR
  5
273
102
{ACAD_REACTORS
330
26F
102
}
330
26F
100
DictionaryVariables
280
     0
  1
1
  0
DICTIONARY
  5
296
330
3D
100
AcDbDictionary
280
     1
281
     1
  3
ACAD_XREC_ROUNDTRIP
360
297
  0
DICTIONARY
  5
294
330
3C
100
AcDbDictionary
280
     1
281
     1
  3
ACAD_XREC_ROUNDTRIP
360
295
  0
DICTIONARY
  5
298
330
3E
100
AcDbDictionary
280
     1
281
     1
  3
ACAD_XREC_ROUNDTRIP
360
299
  0
DICTIONARY
  5
27C
330
2F
100
AcDbDictionary
280
     1
281
     1
  3
ACAD_XREC_ROUNDTRIP
360
27D
  0
DICTIONARY
  5
280
330
31
100
AcDbDictionary
280
     1
281
     1
  3
ACAD_XREC_ROUNDTRIP
360
281
  0
DICTIONARY
  5
27E
330
30
100
AcDbDictionary
280
     1
281
     1
  3
ACAD_XREC_ROUNDTRIP
360
27F
  0
DICTIONARY
  5
282
330
32
100
AcDbDictionary
280
     1
281
     1
  3
ACAD_XREC_ROUNDTRIP
360
283
  0
DICTIONARY
  5
28A
330
36
100
AcDbDictionary
280
     1
281
     1
  3
ACAD_XREC_ROUNDTRIP
360
28B
  0
DICTIONARY
  5
292
330
3A
100
AcDbDictionary
280
     1
281
     1
  3
ACAD_XREC_ROUNDTRIP
360
293
  0
DICTIONARY
  5
286
330
34
100
AcDbDictionary
280
     1
281
     1
  3
ACAD_XREC_ROUNDTRIP
360
287
  0
DICTIONARY
  5
288
330
35
100
AcDbDictionary
280
     1
281
     1
  3
ACAD_XREC_ROUNDTRIP
360
289
  0
DICTIONARY
  5
290
330
39
100
AcDbDictionary
280
     1
281
     1
  3
ACAD_XREC_ROUNDTRIP
360
291
  0
DICTIONARY
  5
274
330
2B
100
AcDbDictionary
280
     1
281
     1
  3
ACAD_XREC_ROUNDTRIP
360
275
  0
DICTIONARY
  5
276
330
2C
100
AcDbDictionary
280
     1
281
     1
  3
ACAD_XREC_ROUNDTRIP
360
277
  0
DICTIONARY
  5
278
330
2D
100
AcDbDictionary
280
     1
281
     1
  3
ACAD_XREC_ROUNDTRIP
360
279
  0
DICTIONARY
  5
27A
330
2E
100
AcDbDictionary
280
     1
281
     1
  3
ACAD_XREC_ROUNDTRIP
360
27B
  0
DICTIONARY
  5
28E
330
38
100
AcDbDictionary
280
     1
281
     1
  3
ACAD_XREC_ROUNDTRIP
360
28F
  0
DICTIONARY
  5
284
330
33
100
AcDbDictionary
280
     1
281
     1
  3
ACAD_XREC_ROUNDTRIP
360
285
  0
DICTIONARY
  5
28C
330
37
100
AcDbDictionary
280
     1
281
     1
  3
ACAD_XREC_ROUNDTRIP
360
28D
  0
XRECORD
  5
297
102
{ACAD_REACTORS
330
296
102
}
330
296
100
AcDbXrecord
280
     1
102
MATERIAL
148
0.0
149
0.0
149
0.0
 93
        0
 94
      127
282
     0
 72
     1
 77
     1
171
     1
175
     1
179
     1
273
     0
  0
XRECORD
  5
295
102
{ACAD_REACTORS
330
294
102
}
330
294
100
AcDbXrecord
280
     1
102
MATERIAL
148
0.0
149
0.0
149
0.0
 93
        0
 94
      127
282
     0
 72
     1
 77
     1
171
     1
175
     1
179
     1
273
     0
  0
XRECORD
  5
299
102
{ACAD_REACTORS
330
298
102
}
330
298
100
AcDbXrecord
280
     1
102
MATERIAL
148
0.0
149
0.0
149
0.0
 93
        0
 94
      127
282
     0
 72
     1
 77
     1
171
     1
175
     1
179
     1
273
     0
  0
XRECORD
  5
27D
102
{ACAD_REACTORS
330
27C
102
}
330
27C
100
AcDbXrecord
280
     1
102
RTVSPropertyOp0
 70
     1
102
RTVSPropertyOp1
 70
     1
102
RTVSPropertyOp2
 70
     1
102
RTVSPropertyOp3
 70
     1
102
RTVSPropertyOp4
 70
     1
102
RTVSPropertyOp5
 70
     1
102
RTVSPropertyOp6
 70
     1
102
RTVSPropertyOp7
 70
     1
102
RTVSPropertyOp8
 70
     1
102
RTVSPropertyOp9
 70
     1
102
RTVSPropertyOp10
 70
     1
102
RTVSPropertyOp11
 70
     1
102
RTVSPropertyOp12
 70
     1
102
RTVSPropertyOp13
 70
     1
102
RTVSPropertyOp14
 70
     1
102
RTVSPropertyOp15
 70
     1
102
RTVSPropertyOp16
 70
     1
102
RTVSPropertyOp17
 70
     1
102
RTVSPropertyOp18
 70
     1
102
RTVSPropertyOp19
 70
     1
102
RTVSPropertyOp20
 70
     1
102
RTVSPropertyOp21
 70
     1
102
RTVSPropertyOp22
 70
     1
102
RTVSPropertyOp23
 70
     1
102
RTVSPropertyOp24
 70
     1
102
RTVSPropertyOp25
 70
     1
102
RTVSPropertyOp26
 70
     1
102
RTVSPropertyOp27
 70
     1
102
RTVSPropertyOp28
 70
     1
102
RTVSPropertyOp29
 70
     1
102
RTVSPropertyOp30
 70
     1
102
RTVSPropertyOp31
 70
     1
102
RTVSPropertyOp32
 70
     1
  0
XRECORD
  5
281
102
{ACAD_REACTORS
330
280
102
}
330
280
100
AcDbXrecord
280
     1
102
RTVSPropertyOp0
 70
     1
102
RTVSPropertyOp1
 70
     1
102
RTVSPropertyOp2
 70
     1
102
RTVSPropertyOp3
 70
     1
102
RTVSPropertyOp4
 70
     1
102
RTVSPropertyOp5
 70
     1
102
RTVSPropertyOp6
 70
     1
102
RTVSPropertyOp7
 70
     1
102
RTVSPropertyOp8
 70
     1
102
RTVSPropertyOp9
 70
     1
102
RTVSPropertyOp10
 70
     1
102
RTVSPropertyOp11
 70
     1
102
RTVSPropertyOp12
 70
     1
102
RTVSPropertyOp13
 70
     1
102
RTVSPropertyOp14
 70
     1
102
RTVSPropertyOp15
 70
     1
102
RTVSPropertyOp16
 70
     1
102
RTVSPropertyOp17
 70
     1
102
RTVSPropertyOp18
 70
     1
102
RTVSPropertyOp19
 70
     1
102
RTVSPropertyOp20
 70
     1
102
RTVSPropertyOp21
 70
     1
102
RTVSPropertyOp22
 70
     1
102
RTVSPropertyOp23
 70
     1
102
RTVSPropertyOp24
 70
     1
102
RTVSPropertyOp25
 70
     1
102
RTVSPropertyOp26
 70
     1
102
RTVSPropertyOp27
 70
     1
102
RTVSPropertyOp28
 70
     1
102
RTVSPropertyOp29
 70
     1
102
RTVSPropertyOp30
 70
     1
102
RTVSPropertyOp31
 70
     1
102
RTVSPropertyOp32
 70
     1
  0
XRECORD
  5
27F
102
{ACAD_REACTORS
330
27E
102
}
330
27E
100
AcDbXrecord
280
     1
102
RTVSPropertyOp0
 70
     1
102
RTVSPropertyOp1
 70
     1
102
RTVSPropertyOp2
 70
     1
102
RTVSPropertyOp3
 70
     1
102
RTVSPropertyOp4
 70
     1
102
RTVSPropertyOp5
 70
     1
102
RTVSPropertyOp6
 70
     1
102
RTVSPropertyOp7
 70
     1
102
RTVSPropertyOp8
 70
     1
102
RTVSPropertyOp9
 70
     1
102
RTVSPropertyOp10
 70
     1
102
RTVSPropertyOp11
 70
     1
102
RTVSPropertyOp12
 70
     1
102
RTVSPropertyOp13
 70
     1
102
RTVSPropertyOp14
 70
     1
102
RTVSPropertyOp15
 70
     1
102
RTVSPropertyOp16
 70
     1
102
RTVSPropertyOp17
 70
     1
102
RTVSPropertyOp18
 70
     1
102
RTVSPropertyOp19
 70
     1
102
RTVSPropertyOp20
 70
     1
102
RTVSPropertyOp21
 70
     1
102
RTVSPropertyOp22
 70
     1
102
RTVSPropertyOp23
 70
     1
102
RTVSPropertyOp24
 70
     1
102
RTVSPropertyOp25
 70
     1
102
RTVSPropertyOp26
 70
     1
102
RTVSPropertyOp27
 70
     1
102
RTVSPropertyOp28
 70
     1
102
RTVSPropertyOp29
 70
     1
102
RTVSPropertyOp30
 70
     1
102
RTVSPropertyOp31
 70
     1
102
RTVSPropertyOp32
 70
     1
  0
XRECORD
  5
283
102
{ACAD_REACTORS
330
282
102
}
330
282
100
AcDbXrecord
280
     1
102
RTVSPropertyOp0
 70
     1
102
RTVSPropertyOp1
 70
     1
102
RTVSPropertyOp2
 70
     1
102
RTVSPropertyOp3
 70
     1
102
RTVSPropertyOp4
 70
     1
102
RTVSPropertyOp5
 70
     1
102
RTVSPropertyOp6
 70
     1
102
RTVSPropertyOp7
 70
     1
102
RTVSPropertyOp8
 70
     1
102
RTVSPropertyOp9
 70
     1
102
RTVSPropertyOp10
 70
     1
102
RTVSPropertyOp11
 70
     1
102
RTVSPropertyOp12
 70
     1
102
RTVSPropertyOp13
 70
     1
102
RTVSPropertyOp14
 70
     1
102
RTVSPropertyOp15
 70
     1
102
RTVSPropertyOp16
 70
     1
102
RTVSPropertyOp17
 70
     1
102
RTVSPropertyOp18
 70
     1
102
RTVSPropertyOp19
 70
     1
102
RTVSPropertyOp20
 70
     1
102
RTVSPropertyOp21
 70
     1
102
RTVSPropertyOp22
 70
     1
102
RTVSPropertyOp23
 70
     1
102
RTVSPropertyOp24
 70
     1
102
RTVSPropertyOp25
 70
     1
102
RTVSPropertyOp26
 70
     1
102
RTVSPropertyOp27
 70
     1
102
RTVSPropertyOp28
 70
     1
102
RTVSPropertyOp29
 70
     1
102
RTVSPropertyOp30
 70
     1
102
RTVSPropertyOp31
 70
     1
102
RTVSPropertyOp32
 70
     1
  0
XRECORD
  5
28B
102
{ACAD_REACTORS
330
28A
102
}
330
28A
100
AcDbXrecord
280
     1
102
RTVSPropertyOp0
 70
     1
102
RTVSPropertyOp1
 70
     1
102
RTVSPropertyOp2
 70
     1
102
RTVSPropertyOp3
 70
     1
102
RTVSPropertyOp4
 70
     1
102
RTVSPropertyOp5
 70
     1
102
RTVSPropertyOp6
 70
     1
102
RTVSPropertyOp7
 70
     1
102
RTVSPropertyOp8
 70
     1
102
RTVSPropertyOp9
 70
     1
102
RTVSPropertyOp10
 70
     1
102
RTVSPropertyOp11
 70
     1
102
RTVSPropertyOp12
 70
     1
102
RTVSPropertyOp13
 70
     1
102
RTVSPropertyOp14
 70
     1
102
RTVSPropertyOp15
 70
     1
102
RTVSPropertyOp16
 70
     1
102
RTVSPropertyOp17
 70
     1
102
RTVSPropertyOp18
 70
     1
102
RTVSPropertyOp19
 70
     1
102
RTVSPropertyOp20
 70
     1
102
RTVSPropertyOp21
 70
     1
102
RTVSPropertyOp22
 70
     1
102
RTVSPropertyOp23
 70
     1
102
RTVSPropertyOp24
 70
     1
102
RTVSPropertyOp25
 70
     1
102
RTVSPropertyOp26
 70
     1
102
RTVSPropertyOp27
 70
     1
102
RTVSPropertyOp28
 70
     1
102
RTVSPropertyOp29
 70
     1
102
RTVSPropertyOp30
 70
     1
102
RTVSPropertyOp31
 70
     1
102
RTVSPropertyOp32
 70
     1
  0
XRECORD
  5
293
102
{ACAD_REACTORS
330
292
102
}
330
292
100
AcDbXrecord
280
     1
102
RTVSPropertyOp0
 70
     1
102
RTVSPropertyOp1
 70
     1
102
RTVSPropertyOp2
 70
     1
102
RTVSPropertyOp3
 70
     1
102
RTVSPropertyOp4
 70
     1
102
RTVSPropertyOp5
 70
     1
102
RTVSPropertyOp6
 70
     1
102
RTVSPropertyOp7
 70
     1
102
RTVSPropertyOp8
 70
     1
102
RTVSPropertyOp9
 70
     1
102
RTVSPropertyOp10
 70
     1
102
RTVSPropertyOp11
 70
     1
102
RTVSPropertyOp12
 70
     1
102
RTVSPropertyOp13
 70
     1
102
RTVSPropertyOp14
 70
     1
102
RTVSPropertyOp15
 70
     1
102
RTVSPropertyOp16
 70
     1
102
RTVSPropertyOp17
 70
     1
102
RTVSPropertyOp18
 70
     1
102
RTVSPropertyOp19
 70
     1
102
RTVSPropertyOp20
 70
     1
102
RTVSPropertyOp21
 70
     1
102
RTVSPropertyOp22
 70
     1
102
RTVSPropertyOp23
 70
     1
102
RTVSPropertyOp24
 70
     1
102
RTVSPropertyOp25
 70
     1
102
RTVSPropertyOp26
 70
     1
102
RTVSPropertyOp27
 70
     1
102
RTVSPropertyOp28
 70
     1
102
RTVSPropertyOp29
 70
     1
102
RTVSPropertyOp30
 70
     1
102
RTVSPropertyOp31
 70
     1
102
RTVSPropertyOp32
 70
     1
  0
XRECORD
  5
287
102
{ACAD_REACTORS
330
286
102
}
330
286
100
AcDbXrecord
280
     1
102
RTVSPropertyOp0
 70
     1
102
RTVSPropertyOp1
 70
     1
102
RTVSPropertyOp2
 70
     1
102
RTVSPropertyOp3
 70
     1
102
RTVSPropertyOp4
 70
     1
102
RTVSPropertyOp5
 70
     1
102
RTVSPropertyOp6
 70
     1
102
RTVSPropertyOp7
 70
     1
102
RTVSPropertyOp8
 70
     1
102
RTVSPropertyOp9
 70
     1
102
RTVSPropertyOp10
 70
     1
102
RTVSPropertyOp11
 70
     1
102
RTVSPropertyOp12
 70
     1
102
RTVSPropertyOp13
 70
     1
102
RTVSPropertyOp14
 70
     1
102
RTVSPropertyOp15
 70
     1
102
RTVSPropertyOp16
 70
     1
102
RTVSPropertyOp17
 70
     1
102
RTVSPropertyOp18
 70
     1
102
RTVSPropertyOp19
 70
     1
102
RTVSPropertyOp20
 70
     1
102
RTVSPropertyOp21
 70
     1
102
RTVSPropertyOp22
 70
     1
102
RTVSPropertyOp23
 70
     1
102
RTVSPropertyOp24
 70
     1
102
RTVSPropertyOp25
 70
     1
102
RTVSPropertyOp26
 70
     1
102
RTVSPropertyOp27
 70
     1
102
RTVSPropertyOp28
 70
     1
102
RTVSPropertyOp29
 70
     1
102
RTVSPropertyOp30
 70
     1
102
RTVSPropertyOp31
 70
     1
102
RTVSPropertyOp32
 70
     1
  0
XRECORD
  5
289
102
{ACAD_REACTORS
330
288
102
}
330
288
100
AcDbXrecord
280
     1
102
RTVSPropertyOp0
 70
     1
102
RTVSPropertyOp1
 70
     1
102
RTVSPropertyOp2
 70
     1
102
RTVSPropertyOp3
 70
     1
102
RTVSPropertyOp4
 70
     1
102
RTVSPropertyOp5
 70
     1
102
RTVSPropertyOp6
 70
     1
102
RTVSPropertyOp7
 70
     1
102
RTVSPropertyOp8
 70
     1
102
RTVSPropertyOp9
 70
     1
102
RTVSPropertyOp10
 70
     1
102
RTVSPropertyOp11
 70
     1
102
RTVSPropertyOp12
 70
     1
102
RTVSPropertyOp13
 70
     1
102
RTVSPropertyOp14
 70
     1
102
RTVSPropertyOp15
 70
     1
102
RTVSPropertyOp16
 70
     1
102
RTVSPropertyOp17
 70
     1
102
RTVSPropertyOp18
 70
     1
102
RTVSPropertyOp19
 70
     1
102
RTVSPropertyOp20
 70
     1
102
RTVSPropertyOp21
 70
     1
102
RTVSPropertyOp22
 70
     1
102
RTVSPropertyOp23
 70
     1
102
RTVSPropertyOp24
 70
     1
102
RTVSPropertyOp25
 70
     1
102
RTVSPropertyOp26
 70
     1
102
RTVSPropertyOp27
 70
     1
102
RTVSPropertyOp28
 70
     1
102
RTVSPropertyOp29
 70
     1
102
RTVSPropertyOp30
 70
     1
102
RTVSPropertyOp31
 70
     1
102
RTVSPropertyOp32
 70
     1
  0
XRECORD
  5
291
102
{ACAD_REACTORS
330
290
102
}
330
290
100
AcDbXrecord
280
     1
102
RTVSPropertyOp0
 70
     1
102
RTVSPropertyOp1
 70
     1
102
RTVSPropertyOp2
 70
     1
102
RTVSPropertyOp3
 70
     1
102
RTVSPropertyOp4
 70
     1
102
RTVSPropertyOp5
 70
     1
102
RTVSPropertyOp6
 70
     1
102
RTVSPropertyOp7
 70
     1
102
RTVSPropertyOp8
 70
     1
102
RTVSPropertyOp9
 70
     1
102
RTVSPropertyOp10
 70
     1
102
RTVSPropertyOp11
 70
     1
102
RTVSPropertyOp12
 70
     1
102
RTVSPropertyOp13
 70
     1
102
RTVSPropertyOp14
 70
     1
102
RTVSPropertyOp15
 70
     1
102
RTVSPropertyOp16
 70
     1
102
RTVSPropertyOp17
 70
     1
102
RTVSPropertyOp18
 70
     1
102
RTVSPropertyOp19
 70
     1
102
RTVSPropertyOp20
 70
     1
102
RTVSPropertyOp21
 70
     1
102
RTVSPropertyOp22
 70
     1
102
RTVSPropertyOp23
 70
     1
102
RTVSPropertyOp24
 70
     1
102
RTVSPropertyOp25
 70
     1
102
RTVSPropertyOp26
 70
     1
102
RTVSPropertyOp27
 70
     1
102
RTVSPropertyOp28
 70
     1
102
RTVSPropertyOp29
 70
     1
102
RTVSPropertyOp30
 70
     1
102
RTVSPropertyOp31
 70
     1
102
RTVSPropertyOp32
 70
     1
  0
XRECORD
  5
275
102
{ACAD_REACTORS
330
274
102
}
330
274
100
AcDbXrecord
280
     1
102
RTVSPropertyOp0
 70
     1
102
RTVSPropertyOp1
 70
     1
102
RTVSPropertyOp2
 70
     1
102
RTVSPropertyOp3
 70
     1
102
RTVSPropertyOp4
 70
     1
102
RTVSPropertyOp5
 70
     1
102
RTVSPropertyOp6
 70
     1
102
RTVSPropertyOp7
 70
     1
102
RTVSPropertyOp8
 70
     1
102
RTVSPropertyOp9
 70
     1
102
RTVSPropertyOp10
 70
     1
102
RTVSPropertyOp11
 70
     1
102
RTVSPropertyOp12
 70
     1
102
RTVSPropertyOp13
 70
     1
102
RTVSPropertyOp14
 70
     1
102
RTVSPropertyOp15
 70
     1
102
RTVSPropertyOp16
 70
     1
102
RTVSPropertyOp17
 70
     1
102
RTVSPropertyOp18
 70
     1
102
RTVSPropertyOp19
 70
     1
102
RTVSPropertyOp20
 70
     1
102
RTVSPropertyOp21
 70
     1
102
RTVSPropertyOp22
 70
     1
102
RTVSPropertyOp23
 70
     1
102
RTVSPropertyOp24
 70
     1
102
RTVSPropertyOp25
 70
     1
102
RTVSPropertyOp26
 70
     1
102
RTVSPropertyOp27
 70
     1
102
RTVSPropertyOp28
 70
     1
102
RTVSPropertyOp29
 70
     1
102
RTVSPropertyOp30
 70
     1
102
RTVSPropertyOp31
 70
     1
102
RTVSPropertyOp32
 70
     1
  0
XRECORD
  5
277
102
{ACAD_REACTORS
330
276
102
}
330
276
100
AcDbXrecord
280
     1
102
RTVSPropertyOp0
 70
     1
102
RTVSPropertyOp1
 70
     1
102
RTVSPropertyOp2
 70
     1
102
RTVSPropertyOp3
 70
     1
102
RTVSPropertyOp4
 70
     1
102
RTVSPropertyOp5
 70
     1
102
RTVSPropertyOp6
 70
     1
102
RTVSPropertyOp7
 70
     1
102
RTVSPropertyOp8
 70
     1
102
RTVSPropertyOp9
 70
     1
102
RTVSPropertyOp10
 70
     1
102
RTVSPropertyOp11
 70
     1
102
RTVSPropertyOp12
 70
     1
102
RTVSPropertyOp13
 70
     1
102
RTVSPropertyOp14
 70
     1
102
RTVSPropertyOp15
 70
     1
102
RTVSPropertyOp16
 70
     1
102
RTVSPropertyOp17
 70
     1
102
RTVSPropertyOp18
 70
     1
102
RTVSPropertyOp19
 70
     1
102
RTVSPropertyOp20
 70
     1
102
RTVSPropertyOp21
 70
     1
102
RTVSPropertyOp22
 70
     1
102
RTVSPropertyOp23
 70
     1
102
RTVSPropertyOp24
 70
     1
102
RTVSPropertyOp25
 70
     1
102
RTVSPropertyOp26
 70
     1
102
RTVSPropertyOp27
 70
     1
102
RTVSPropertyOp28
 70
     1
102
RTVSPropertyOp29
 70
     1
102
RTVSPropertyOp30
 70
     1
102
RTVSPropertyOp31
 70
     1
102
RTVSPropertyOp32
 70
     1
  0
XRECORD
  5
279
102
{ACAD_REACTORS
330
278
102
}
330
278
100
AcDbXrecord
280
     1
102
RTVSPropertyOp0
 70
     1
102
RTVSPropertyOp1
 70
     1
102
RTVSPropertyOp2
 70
     1
102
RTVSPropertyOp3
 70
     1
102
RTVSPropertyOp4
 70
     1
102
RTVSPropertyOp5
 70
     1
102
RTVSPropertyOp6
 70
     1
102
RTVSPropertyOp7
 70
     1
102
RTVSPropertyOp8
 70
     1
102
RTVSPropertyOp9
 70
     1
102
RTVSPropertyOp10
 70
     1
102
RTVSPropertyOp11
 70
     1
102
RTVSPropertyOp12
 70
     1
102
RTVSPropertyOp13
 70
     1
102
RTVSPropertyOp14
 70
     1
102
RTVSPropertyOp15
 70
     1
102
RTVSPropertyOp16
 70
     1
102
RTVSPropertyOp17
 70
     1
102
RTVSPropertyOp18
 70
     1
102
RTVSPropertyOp19
 70
     1
102
RTVSPropertyOp20
 70
     1
102
RTVSPropertyOp21
 70
     1
102
RTVSPropertyOp22
 70
     1
102
RTVSPropertyOp23
 70
     1
102
RTVSPropertyOp24
 70
     1
102
RTVSPropertyOp25
 70
     1
102
RTVSPropertyOp26
 70
     1
102
RTVSPropertyOp27
 70
     1
102
RTVSPropertyOp28
 70
     1
102
RTVSPropertyOp29
 70
     1
102
RTVSPropertyOp30
 70
     1
102
RTVSPropertyOp31
 70
     1
102
RTVSPropertyOp32
 70
     1
  0
XRECORD
  5
27B
102
{ACAD_REACTORS
330
27A
102
}
330
27A
100
AcDbXrecord
280
     1
102
RTVSPropertyOp0
 70
     1
102
RTVSPropertyOp1
 70
     1
102
RTVSPropertyOp2
 70
     1
102
RTVSPropertyOp3
 70
     1
102
RTVSPropertyOp4
 70
     1
102
RTVSPropertyOp5
 70
     1
102
RTVSPropertyOp6
 70
     1
102
RTVSPropertyOp7
 70
     1
102
RTVSPropertyOp8
 70
     1
102
RTVSPropertyOp9
 70
     1
102
RTVSPropertyOp10
 70
     1
102
RTVSPropertyOp11
 70
     1
102
RTVSPropertyOp12
 70
     1
102
RTVSPropertyOp13
 70
     1
102
RTVSPropertyOp14
 70
     1
102
RTVSPropertyOp15
 70
     1
102
RTVSPropertyOp16
 70
     1
102
RTVSPropertyOp17
 70
     1
102
RTVSPropertyOp18
 70
     1
102
RTVSPropertyOp19
 70
     1
102
RTVSPropertyOp20
 70
     1
102
RTVSPropertyOp21
 70
     1
102
RTVSPropertyOp22
 70
     1
102
RTVSPropertyOp23
 70
     1
102
RTVSPropertyOp24
 70
     1
102
RTVSPropertyOp25
 70
     1
102
RTVSPropertyOp26
 70
     1
102
RTVSPropertyOp27
 70
     1
102
RTVSPropertyOp28
 70
     1
102
RTVSPropertyOp29
 70
     1
102
RTVSPropertyOp30
 70
     1
102
RTVSPropertyOp31
 70
     1
102
RTVSPropertyOp32
 70
     1
  0
XRECORD
  5
28F
102
{ACAD_REACTORS
330
28E
102
}
330
28E
100
AcDbXrecord
280
     1
102
RTVSPropertyOp0
 70
     1
102
RTVSPropertyOp1
 70
     1
102
RTVSPropertyOp2
 70
     1
102
RTVSPropertyOp3
 70
     1
102
RTVSPropertyOp4
 70
     1
102
RTVSPropertyOp5
 70
     1
102
RTVSPropertyOp6
 70
     1
102
RTVSPropertyOp7
 70
     1
102
RTVSPropertyOp8
 70
     1
102
RTVSPropertyOp9
 70
     1
102
RTVSPropertyOp10
 70
     1
102
RTVSPropertyOp11
 70
     1
102
RTVSPropertyOp12
 70
     1
102
RTVSPropertyOp13
 70
     1
102
RTVSPropertyOp14
 70
     1
102
RTVSPropertyOp15
 70
     1
102
RTVSPropertyOp16
 70
     1
102
RTVSPropertyOp17
 70
     1
102
RTVSPropertyOp18
 70
     1
102
RTVSPropertyOp19
 70
     1
102
RTVSPropertyOp20
 70
     1
102
RTVSPropertyOp21
 70
     1
102
RTVSPropertyOp22
 70
     1
102
RTVSPropertyOp23
 70
     1
102
RTVSPropertyOp24
 70
     1
102
RTVSPropertyOp25
 70
     1
102
RTVSPropertyOp26
 70
     1
102
RTVSPropertyOp27
 70
     1
102
RTVSPropertyOp28
 70
     1
102
RTVSPropertyOp29
 70
     1
102
RTVSPropertyOp30
 70
     1
102
RTVSPropertyOp31
 70
     1
102
RTVSPropertyOp32
 70
     1
  0
XRECORD
  5
285
102
{ACAD_REACTORS
330
284
102
}
330
284
100
AcDbXrecord
280
     1
102
RTVSPropertyOp0
 70
     1
102
RTVSPropertyOp1
 70
     1
102
RTVSPropertyOp2
 70
     1
102
RTVSPropertyOp3
 70
     1
102
RTVSPropertyOp4
 70
     1
102
RTVSPropertyOp5
 70
     1
102
RTVSPropertyOp6
 70
     1
102
RTVSPropertyOp7
 70
     1
102
RTVSPropertyOp8
 70
     1
102
RTVSPropertyOp9
 70
     1
102
RTVSPropertyOp10
 70
     1
102
RTVSPropertyOp11
 70
     1
102
RTVSPropertyOp12
 70
     1
102
RTVSPropertyOp13
 70
     1
102
RTVSPropertyOp14
 70
     1
102
RTVSPropertyOp15
 70
     1
102
RTVSPropertyOp16
 70
     1
102
RTVSPropertyOp17
 70
     1
102
RTVSPropertyOp18
 70
     1
102
RTVSPropertyOp19
 70
     1
102
RTVSPropertyOp20
 70
     1
102
RTVSPropertyOp21
 70
     1
102
RTVSPropertyOp22
 70
     1
102
RTVSPropertyOp23
 70
     1
102
RTVSPropertyOp24
 70
     1
102
RTVSPropertyOp25
 70
     1
102
RTVSPropertyOp26
 70
     1
102
RTVSPropertyOp27
 70
     1
102
RTVSPropertyOp28
 70
     1
102
RTVSPropertyOp29
 70
     1
102
RTVSPropertyOp30
 70
     1
102
RTVSPropertyOp31
 70
     1
102
RTVSPropertyOp32
 70
     1
  0
XRECORD
  5
28D
102
{ACAD_REACTORS
330
28C
102
}
330
28C
100
AcDbXrecord
280
     1
102
RTVSPropertyOp0
 70
     1
102
RTVSPropertyOp1
 70
     1
102
RTVSPropertyOp2
 70
     1
102
RTVSPropertyOp3
 70
     1
102
RTVSPropertyOp4
 70
     1
102
RTVSPropertyOp5
 70
     1
102
RTVSPropertyOp6
 70
     1
102
RTVSPropertyOp7
 70
     1
102
RTVSPropertyOp8
 70
     1
102
RTVSPropertyOp9
 70
     1
102
RTVSPropertyOp10
 70
     1
102
RTVSPropertyOp11
 70
     1
102
RTVSPropertyOp12
 70
     1
102
RTVSPropertyOp13
 70
     1
102
RTVSPropertyOp14
 70
     1
102
RTVSPropertyOp15
 70
     1
102
RTVSPropertyOp16
 70
     1
102
RTVSPropertyOp17
 70
     1
102
RTVSPropertyOp18
 70
     1
102
RTVSPropertyOp19
 70
     1
102
RTVSPropertyOp20
 70
     1
102
RTVSPropertyOp21
 70
     1
102
RTVSPropertyOp22
 70
     1
102
RTVSPropertyOp23
 70
     1
102
RTVSPropertyOp24
 70
     1
102
RTVSPropertyOp25
 70
     1
102
RTVSPropertyOp26
 70
     1
102
RTVSPropertyOp27
 70
     1
102
RTVSPropertyOp28
 70
     1
102
RTVSPropertyOp29
 70
     1
102
RTVSPropertyOp30
 70
     1
102
RTVSPropertyOp31
 70
     1
102
RTVSPropertyOp32
 70
     1
  0
ENDSEC
  0
EOF
